Tags
Language
Tags

Christian Thielemann, Staatskapelle Dresden - Bruckner: The Symphonies No. 9 (2021) [Blu-Ray]

Posted By: Vilboa
Christian Thielemann, Staatskapelle Dresden - Bruckner: The Symphonies No. 9 (2021) [Blu-Ray]

Christian Thielemann, Staatskapelle Dresden - Bruckner: The Symphonies No. 9 (2021) [Blu-Ray]
BluRay | BDMV | MPEG-4 AVC Video / 29881 kbps / 1080i / 29.970 fps | 65 min | 19,1 Gb
Audio1: LPCM Audio / 2.0 / 24-bit | Audio2: DTS-HD Master Audio / 5.0 / 48 kHz / 3507 kbps / 24-bit
––––––
BluRay-rip | AVC | MKV 1920x1080 / 6215 kbps / 29,97 fps | 65 min | 3,54 Gb
Audio: DTS / 5ch / 48.0 KHz / 24-bits
Classical | C Major

This Blu-ray box contains the international acclaimed Bruckner cycle of Christian Thielemann, a “magician of the Bruckner sound”(Kurier on Symphony No. 5) and the Staatskapelle Dresden, whose own Bruckner tradition dates back more than a century. Outstanding reviews emphasize the exceptionally high artistic quality of the concerts: “Once again Thielemann proved to be the unrestricted ruler on his ancestral territory, German Romantic repertoire” (Hamburger Abendblatt on Symphony No. 2). Christian Thielemann “displays the full musical maelstrom of Bruckner’s Symphony No. 3” (Münchner Merkur). “Another Bruckner triumph for Dresden” (Sächsische Zeitung on Symphony No. 6). “… one would have to be hard-hearted not to be touched by this heartfelt music” (Der Tagesspiegel on Symphony No. 8).

Cast:
Sächsische Staatskapelle Dresden
Christian Thielemann, conductor

Track List:
Disk 9
1. Vorspann
Sinfonie Nr. 9 d-moll "Dem lieben Gott"
2. 1. Feierlich, misterioso
3. 2. Scherzo: Bewegt, lebhaft - Trio: Schnell
4. 3. Adagio - Langsam, feierlich
5. Applaus
6. Abspann


Disc Title: Bruckner Symphony No.9
Disc Size: 20 519 247 394 bytes
Protection: AACS
Playlist: 00003.MPLS
Size: 18 601 881 600 bytes
Length: 1:05:57.687
Total Bitrate: 37.60 Mbps
Video: MPEG-4 AVC Video / 29881 kbps / 1080i / 29.970 fps / 16:9 / High Profile 4.1
Audio: Undetermined / LPCM Audio / 2.0 / 48 kHz / 2304 kbps / 24-bit
Audio: Undetermined / DTS-HD Master Audio / 5.0 / 48 kHz / 3507 kbps / 24-bit (DTS Core: 5.0 / 48 kHz / 1509 kbps / 24-bit)


General
Unique ID : 181827406965869166387901335173807619612 (0x88CAAF4DA63C4EEA9477F8CE9F4A3E1C)
Complete name : C:\Bruckner - Symphony 9.mkv
Format : Matroska
Format version : Version 2
File size : 3.54 GiB
Duration : 1h 5mn
Overall bit rate : 7 727 Kbps
Movie name : Bruckner - Symphony 9
Encoded date : UTC 2021-06-08 14:40:09
Writing application : DVDFab 9.1.6.8
Writing library : libebml v0.7.8 + libmatroska v0.8.1

Video
ID : 1
Format : AVC
Format/Info : Advanced Video Codec
Format profile : High@L4.1
Format settings, CABAC : Yes
Format settings, ReFrames : 2 frames
Codec ID : V_MPEG4/ISO/AVC
Duration : 1h 5mn
Bit rate : 6 215 Kbps
Width : 1 920 pixels
Height : 1 080 pixels
Display aspect ratio : 16:9
Frame rate mode : Constant
Frame rate : 29.970 fps
Color space : YUV
Chroma subsampling : 4:2:0
Bit depth : 8 bits
Scan type : Progressive
Bits/(Pixel*Frame) : 0.100
Stream size : 2.78 GiB (78%)
Writing library : x264 core 142
Encoding settings : cabac=1 / ref=1 / deblock=1:-1:-1 / analyse=0x3:0 / me=hex / subme=5 / psy=0 / mixed_ref=0 / me_range=16 / chroma_me=1 / trellis=0 / 8x8dct=1 / cqm=0 / deadzone=21,11 / fast_pskip=1 / chroma_qp_offset=0 / threads=8 / lookahead_threads=2 / sliced_threads=0 / nr=0 / decimate=1 / interlaced=0 / bluray_compat=0 / constrained_intra=0 / bframes=2 / b_pyramid=0 / b_adapt=1 / b_bias=0 / direct=1 / weightb=1 / open_gop=0 / weightp=0 / keyint=24 / keyint_min=13 / scenecut=40 / intra_refresh=0 / rc=abr / mbtree=0 / bitrate=6215 / ratetol=1.0 / qcomp=0.60 / qpmin=0 / qpmax=69 / qpstep=4 / ip_ratio=1.40 / pb_ratio=1.30 / aq=1:1.00
Default : Yes
Forced : No
Color primaries : BT.709
Transfer characteristics : BT.709
Matrix coefficients : BT.709
Color range : Limited

Audio
ID : 2
Format : DTS
Format/Info : Digital Theater Systems
Mode : 16
Format settings, Endianness : Big
Codec ID : A_DTS
Duration : 1h 5mn
Bit rate mode : Constant
Bit rate : 1 509 Kbps
Channel(s) : 5 channels
Channel positions : Front: L C R, Side: L R
Sampling rate : 48.0 KHz
Bit depth : 24 bits
Compression mode : Lossy
Stream size : 709 MiB (20%)
Default : Yes
Forced : No

Menu
00:00:00.000 : en:Chapter 01
00:00:40.507 : en:Chapter 02
00:25:38.970 : en:Chapter 03
00:36:12.937 : en:Chapter 04
01:02:53.269 : en:Chapter 05
01:03:45.388 : en:Chapter 06

All screenshots taken from BDRip

Christian Thielemann, Staatskapelle Dresden - Bruckner: The Symphonies No. 9 (2021) [Blu-Ray]