Tags
Language
Tags

Bruno Boterf, Ludus Modalis - Claudio Monteverdi: Vespro della Beata Vergine (2018)

Posted By: ArlegZ
Bruno Boterf, Ludus Modalis - Claudio Monteverdi: Vespro della Beata Vergine (2018)

Bruno Boterf, Ludus Modalis - Claudio Monteverdi: Vespro della Beata Vergine (2018)
EAC | FLAC | Image (Cue & Log) ~ 418 Mb | Total time: 90:37 | Scans included
Classical | Label: Ramée | # RAM1702 | Recorded: 2017

The present recording constitutes more than just a new version of the Vespers. It is the first recording of the Vespers in the alternative version proposed by the composer, without concertato instruments. It reveals the underlying matrix of the work we all know, the ‘original version’ to which Monteverdi added concertato instruments for use in large-scale performances. Respecting the structure of the Office of Vespers, Ludus Modalis has chosen to frame the psalms with the antiphons corresponding to a Marian ceremony. The interpretation proposed here is one influenced by the Renaissance tradition. It places the work in perspective in a musical world at the point of equilibrium between prima and seconda prattica, between the achievements of tradition and the contributions of modernity.

Performer:
Ludus Modalis
Bruno Boterf

Track List:
CD1:
01. Intonatio: Deus In Adjutorium Meum Intende
02. Responsorium: Domine Ad Adjuvandum Me Festina
03. Antiphona: Dum Esset Rex
04. Psalmus 109: Dixit Dominus
05. Antiphona: Dum Esset Rex
06. Concerto: Nigra Sum
07. Antiphona: Laeva Ejus
08. Psalmus 112: Laudate Pueri
09. Antiphona: Laeva Ejus
10. Concerto: Pulchra Es
11. Antiphona: Nigra Sum
12. Psalmus 121: Laetatus Sum
13. Antiphona: Nigra Sum
14. Concerto: Duo Seraphim
15. Antiphona: Jam Hiems Transiit
16. Psalmus 126: Nisi Dominus
17. Antiphona: Jam Hiems Transiit
18. Concerto: Audi Coelum
19. Antiphona: Speciosa Facta Es
20. Psalmus 147: Lauda Jerusalem
21. Antiphona: Speciosa Facta Es
CD2:
01. Toccata Avanti Il Recercar (Girolamo Frescobaldi)
02. Recercar Con Obligo Di Cantar La Quinta Parte Senza Toccarla (Girolamo Frescobaldi)
03. Hymnus: Ave Maris Stella
04. Antiphona: Beatam Me Dicent Omnes Generationes
05. Magnificat Secondo


Exact Audio Copy V1.6 from 23. October 2020

EAC extraction logfile from 24. February 2021, 12:01

Ludus Modalis / Monteverdi: Vespro Della Beata Vergine (Disc 1)

Used drive : HL-DT-STDVDRAM GH24NSD5 Adapter: 1 ID: 0

Read mode : Secure
Utilize accurate stream : Yes
Defeat audio cache : Yes
Make use of C2 pointers : No

Read offset correction : 6
Overread into Lead-In and Lead-Out : No
Fill up missing offset samples with silence : Yes
Delete leading and trailing silent blocks : No
Null samples used in CRC calculations : Yes
Used interface : Native Win32 interface for Win NT & 2000

Used output format : User Defined Encoder
Selected bitrate : 1024 kBit/s
Quality : High
Add ID3 tag : No
Command line compressor : C:\Program Files (x86)\Exact Audio Copy\FLAC\FLAC.EXE
Additional command line options : -6 -V -T "ARTIST=%artist%" -T "TITLE=%title%" -T "ALBUM=%albumtitle%" -T "DATE=%year%" -T "TRACKNUMBER=%tracknr%" -T "GENRE=%genre%" -T "COMMENT=%comment%" -T "BAND=%albuminterpret%" -T "ALBUMARTIST=%albuminterpret%" -T "COMPOSER=%composer%" %haslyrics%–tag-from-file=LYRICS="%lyricsfile%"%haslyrics% -T "DISCNUMBER=%cdnumber%" -T "TOTALDISCS=%totalcds%" -T "TOTALTRACKS=%numtracks%" %hascover%–picture="%coverfile%"%hascover% %source% -o %dest%


TOC of the extracted CD

Track | Start | Length | Start sector | End sector
––––––––––––––––––––––––––––-
1 | 0:00.00 | 0:09.22 | 0 | 696
2 | 0:09.22 | 1:09.65 | 697 | 5936
3 | 1:19.12 | 0:22.54 | 5937 | 7640
4 | 1:41.66 | 7:46.58 | 7641 | 42648
5 | 9:28.49 | 0:25.13 | 42649 | 44536
6 | 9:53.62 | 3:14.02 | 44537 | 59088
7 | 13:07.64 | 0:21.09 | 59089 | 60672
8 | 13:28.73 | 6:55.59 | 60673 | 91856
9 | 20:24.57 | 0:23.59 | 91857 | 93640
10 | 20:48.41 | 3:49.52 | 93641 | 110867
11 | 24:38.18 | 0:26.49 | 110868 | 112866
12 | 25:04.67 | 7:51.00 | 112867 | 148191
13 | 32:55.67 | 0:30.50 | 148192 | 150491
14 | 33:26.42 | 6:20.67 | 150492 | 179058
15 | 39:47.34 | 0:26.59 | 179059 | 181067
16 | 40:14.18 | 4:58.13 | 181068 | 203430
17 | 45:12.31 | 0:29.70 | 203431 | 205675
18 | 45:42.26 | 7:36.24 | 205676 | 239899
19 | 53:18.50 | 0:24.11 | 239900 | 241710
20 | 53:42.61 | 5:08.06 | 241711 | 264816
21 | 58:50.67 | 0:29.06 | 264817 | 266997


Range status and errors

Selected range

Filename I:\Rips\Monteverdi - Vespro della beata Vergine - Boterf\CD1\Ludus Modalis - Monteverdi- Vespro Della Beata Vergine (Disc 1).wav

Peak level 95.0 %
Extraction speed 7.0 X
Range quality 100.0 %
Test CRC B1D4269D
Copy CRC B1D4269D
Copy OK

No errors occurred


AccurateRip summary

Track 1 accurately ripped (confidence 2) [E7C24DBB] (AR v2)
Track 2 accurately ripped (confidence 2) [FF01570D] (AR v2)
Track 3 accurately ripped (confidence 2) [E4B9D6B4] (AR v2)
Track 4 accurately ripped (confidence 2) [86993D69] (AR v2)
Track 5 accurately ripped (confidence 2) [E5E9A6F0] (AR v2)
Track 6 accurately ripped (confidence 2) [46AAF86B] (AR v2)
Track 7 accurately ripped (confidence 2) [5DA3DBE0] (AR v2)
Track 8 accurately ripped (confidence 2) [14B6D8D2] (AR v2)
Track 9 accurately ripped (confidence 2) [EAD6F4A9] (AR v2)
Track 10 accurately ripped (confidence 2) [E8719BB8] (AR v2)
Track 11 accurately ripped (confidence 2) [798EC8D8] (AR v2)
Track 12 accurately ripped (confidence 2) [3FA04F93] (AR v2)
Track 13 accurately ripped (confidence 2) [1E785B80] (AR v2)
Track 14 accurately ripped (confidence 2) [8CE8BB36] (AR v2)
Track 15 accurately ripped (confidence 2) [481A23A0] (AR v2)
Track 16 accurately ripped (confidence 2) [3B123EE0] (AR v2)
Track 17 accurately ripped (confidence 2) [B151E146] (AR v2)
Track 18 accurately ripped (confidence 2) [09BB531E] (AR v2)
Track 19 accurately ripped (confidence 2) [3622449F] (AR v2)
Track 20 accurately ripped (confidence 2) [F1DDFF7A] (AR v2)
Track 21 accurately ripped (confidence 2) [F9E2019C] (AR v2)

All tracks accurately ripped

End of status report

–– CUETools DB Plugin V2.1.6

[CTDB TOCID: KwJMYkQI9H_xSvR1iHy3cVrlz9M-] found
Submit result: KwJMYkQI9H_xSvR1iHy3cVrlz9M- has been confirmed
Track | CTDB Status
1 | (7/7) Accurately ripped
2 | (7/7) Accurately ripped
3 | (7/7) Accurately ripped
4 | (7/7) Accurately ripped
5 | (7/7) Accurately ripped
6 | (7/7) Accurately ripped
7 | (7/7) Accurately ripped
8 | (7/7) Accurately ripped
9 | (7/7) Accurately ripped
10 | (7/7) Accurately ripped
11 | (7/7) Accurately ripped
12 | (7/7) Accurately ripped
13 | (7/7) Accurately ripped
14 | (7/7) Accurately ripped
15 | (7/7) Accurately ripped
16 | (7/7) Accurately ripped
17 | (7/7) Accurately ripped
18 | (7/7) Accurately ripped
19 | (7/7) Accurately ripped
20 | (6/7) Accurately ripped
21 | (7/7) Accurately ripped


==== Log checksum 2FA522E45838B5C5FBE454FDE5E3CE0759047668AFD60162188D1969604C70A1 ====


Exact Audio Copy V1.6 from 23. October 2020

EAC extraction logfile from 24. February 2021, 12:37

Ludus Modalis / Monteverdi: Vespro Della Beata Vergine (Disc 2)

Used drive : HL-DT-STDVDRAM GH24NSD5 Adapter: 1 ID: 0

Read mode : Secure
Utilize accurate stream : Yes
Defeat audio cache : Yes
Make use of C2 pointers : No

Read offset correction : 6
Overread into Lead-In and Lead-Out : No
Fill up missing offset samples with silence : Yes
Delete leading and trailing silent blocks : No
Null samples used in CRC calculations : Yes
Used interface : Native Win32 interface for Win NT & 2000

Used output format : User Defined Encoder
Selected bitrate : 1024 kBit/s
Quality : High
Add ID3 tag : No
Command line compressor : C:\Program Files (x86)\Exact Audio Copy\FLAC\FLAC.EXE
Additional command line options : -6 -V -T "ARTIST=%artist%" -T "TITLE=%title%" -T "ALBUM=%albumtitle%" -T "DATE=%year%" -T "TRACKNUMBER=%tracknr%" -T "GENRE=%genre%" -T "COMMENT=%comment%" -T "BAND=%albuminterpret%" -T "ALBUMARTIST=%albuminterpret%" -T "COMPOSER=%composer%" %haslyrics%–tag-from-file=LYRICS="%lyricsfile%"%haslyrics% -T "DISCNUMBER=%cdnumber%" -T "TOTALDISCS=%totalcds%" -T "TOTALTRACKS=%numtracks%" %hascover%–picture="%coverfile%"%hascover% %source% -o %dest%


TOC of the extracted CD

Track | Start | Length | Start sector | End sector
––––––––––––––––––––––––––––-
1 | 0:00.00 | 1:02.58 | 0 | 4707
2 | 1:02.58 | 2:57.38 | 4708 | 18020
3 | 4:00.21 | 8:31.16 | 18021 | 56361
4 | 12:31.37 | 0:23.19 | 56362 | 58105
5 | 12:54.56 | 18:22.50 | 58106 | 140805


Range status and errors

Selected range

Filename I:\Rips\Monteverdi - Vespro della beata Vergine - Boterf\CD2\Ludus Modalis - Monteverdi- Vespro Della Beata Vergine (Disc 2).wav

Peak level 92.4 %
Extraction speed 6.0 X
Range quality 100.0 %
Test CRC F7C63841
Copy CRC F7C63841
Copy OK

No errors occurred


AccurateRip summary

Track 1 accurately ripped (confidence 2) [02D0EA1A] (AR v2)
Track 2 accurately ripped (confidence 2) [413FABF9] (AR v2)
Track 3 accurately ripped (confidence 2) [89F2F090] (AR v2)
Track 4 accurately ripped (confidence 2) [6B24BA42] (AR v2)
Track 5 accurately ripped (confidence 2) [7DE370D1] (AR v2)

All tracks accurately ripped

End of status report

–– CUETools DB Plugin V2.1.6

[CTDB TOCID: fBrlfOLK9A3K_4Wqsfh87L54z8Y-] found
Submit result: fBrlfOLK9A3K_4Wqsfh87L54z8Y- has been confirmed
Track | CTDB Status
1 | (7/7) Accurately ripped
2 | (7/7) Accurately ripped
3 | (7/7) Accurately ripped
4 | (7/7) Accurately ripped
5 | (7/7) Accurately ripped


==== Log checksum 97D4CA724109B67368F6B7AEEAD1791D435EFF538ACFADF5322E9E2E139625BD ====

Bruno Boterf, Ludus Modalis - Claudio Monteverdi: Vespro della Beata Vergine (2018)

Thanks to the original releaser