Subcategories

Bryan Ferry - Let's Stick Together (1976) [Japanese Remastered 2007, HDCD] Re-Up

Posted By: Designol
Bryan Ferry - Let's Stick Together (1976) [Japanese Remastered 2007, HDCD] Re-Up

Bryan Ferry - Let's Stick Together (1976) [Japanese Remastered 2007, HDCD]
EAC | FLAC | Tracks (Cue&Log) ~ 233 Mb | Mp3 (CBR320) ~ 87 Mb | Scans ~ 59 Mb | 00:38:58
Classic Rock, Pop Rock, Glam Rock | Label: Virgin/EMI Music Japan | # VJCP-68814

Let's Stick Together is a 1976 album by Bryan Ferry. His third solo release, it was his first following the disbandment of Roxy Music earlier in the year. Unlike Ferry’s two previous solo recordings, Let’s Stick Together was not a dedicated album project, instead being made up of material released as singles, B-sides and an EP. With a highly popular title track, it had a generally favourable critical reception, but only just made the UK Top 20.

As Roxy approached its mid- to late-'70s hibernation, Ferry came up with another fine solo album, though one of his most curious. With Thompson and Wetton joined by U.K. journeyman guitarist Chris Spedding, Ferry recorded an effort that seemed as much of a bit of creative therapy as it was music for its own sake. On the one hand, he followed the initial formula established for his solo work, looking back to earlier rock, pop, and soul classics with gentle gusto. The title track itself, a cover of the fluke Wilbert Harrison '60s hit, scored Ferry a deserved British hit single, with great sax work from Chris Mercer and Mel Collins and a driving, full band performance. Ferry's delivery is one of his best, right down to the yelps, and the whole thing chugs with post-glam power. Other winners include the Everly Brothers' "The Price of Love" and the Beatles' "It's Only Love," delivered with lead keyboards from Ferry and a nice, full arrangement. On the other hand, half of the album consisted of Ferry originals – but, bizarrely, instead of creating wholly new songs, he re-recorded a slew of earlier Roxy classics. Fanciful fun or exorcising of past demons? It's worth noting that most of the songs come from the Eno period of the band, and consequently the new versions stear clear of the sheer chaos he brought to the original Roxy lineup. As it is, the end results are still interesting treats – "Casanova" exchanges the blasting stomp of the original for a slow, snaky delivery that suggests threat without sounding too worried about it. "Re-Make/Re-Model," meanwhile, turns downright funky without losing any of its weird lyrical edge. Others have subtler differences, as when the stark, stiff midsection of "Sea Breezes" becomes a looser, slow jam.

Review by Ned Raggett, Allmusic.com

Bryan Ferry at Allmusic
Bryan Ferry Website
Bryan Ferry at Wiki

Tracklist:

01. Let's Stick Together (02:59)
02. Casanova (02:46)
03. Sea Breezes (06:11)
04. Shame, Shame, Shame (03:15)
05. 2 HB (03:15)
06. The Price of Love (03:27)
07. Chance Meeting (03:15)
08. It's Only Love (03:49)
09. You Go to My Head (02:42)
10. Re-make/Re-model (02:43)
11. Heart on My Sleeve (03:29)


Exact Audio Copy V0.99 prebeta 4 from 23. January 2008

EAC extraction logfile from 5. May 2009, 2:33

Bryan Ferry / Let's Stick Together

Used drive : HL-DT-STDVDRAM GSA-T20N Adapter: 1 ID: 0

Read mode : Secure
Utilize accurate stream : Yes
Defeat audio cache : Yes
Make use of C2 pointers : No

Read offset correction : 667
Overread into Lead-In and Lead-Out : No
Fill up missing offset samples with silence : Yes
Delete leading and trailing silent blocks : No
Null samples used in CRC calculations : Yes
Used interface : Native Win32 interface for Win NT & 2000
Gap handling : Appended to previous track

Used output format : User Defined Encoder
Selected bitrate : 1024 kBit/s
Quality : High
Add ID3 tag : No
Command line compressor : C:\Program Files\FLAC\flac.exe
Additional command line options : -8 -V -T "ARTIST=%a" -T "TITLE=%t" -T "ALBUM=%g" -T "DATE=%y" -T "TRACKNUMBER=%n" -T "GENRE=%m" -T "COMMENT=EAC FLAC -8" %s


TOC of the extracted CD

Track | Start | Length | Start sector | End sector
––––––––––––––––––––––––––––-
1 | 0:00.00 | 2:59.53 | 0 | 13477
2 | 2:59.53 | 2:46.53 | 13478 | 25980
3 | 5:46.31 | 6:11.26 | 25981 | 53831
4 | 11:57.57 | 3:15.33 | 53832 | 68489
5 | 15:13.15 | 3:15.28 | 68490 | 83142
6 | 18:28.43 | 3:27.68 | 83143 | 98735
7 | 21:56.36 | 3:15.40 | 98736 | 113400
8 | 25:12.01 | 3:49.57 | 113401 | 130632
9 | 29:01.58 | 2:42.64 | 130633 | 142846
10 | 31:44.47 | 2:43.70 | 142847 | 155141
11 | 34:28.42 | 3:29.71 | 155142 | 170887


Track 1

Filename C:\Bryan Ferry - Let's Stick Together (1976) [FLAC] {EMI Music Japan, VJCP-68814}\01 - Let's Stick Together.wav

Pre-gap length 0:00:02.00

Peak level 98.1 %
Track quality 100.0 %
Test CRC 7314B621
Copy CRC 7314B621
Track not present in AccurateRip database
Copy OK

Track 2

Filename C:\Bryan Ferry - Let's Stick Together (1976) [FLAC] {EMI Music Japan, VJCP-68814}\02 - Casanova.wav

Peak level 98.1 %
Track quality 99.9 %
Test CRC A0C261B5
Copy CRC A0C261B5
Track not present in AccurateRip database
Copy OK

Track 3

Filename C:\Bryan Ferry - Let's Stick Together (1976) [FLAC] {EMI Music Japan, VJCP-68814}\03 - Sea Breezes.wav

Peak level 99.9 %
Track quality 100.0 %
Test CRC DA6047A1
Copy CRC DA6047A1
Track not present in AccurateRip database
Copy OK

Track 4

Filename C:\Bryan Ferry - Let's Stick Together (1976) [FLAC] {EMI Music Japan, VJCP-68814}\04 - Shame, Shame, Shame.wav

Peak level 99.3 %
Track quality 100.0 %
Test CRC 4E2D4F04
Copy CRC 4E2D4F04
Track not present in AccurateRip database
Copy OK

Track 5

Filename C:\Bryan Ferry - Let's Stick Together (1976) [FLAC] {EMI Music Japan, VJCP-68814}\05 - 2 HB.wav

Peak level 98.1 %
Track quality 100.0 %
Test CRC 511E0E1E
Copy CRC 511E0E1E
Track not present in AccurateRip database
Copy OK

Track 6

Filename C:\Bryan Ferry - Let's Stick Together (1976) [FLAC] {EMI Music Japan, VJCP-68814}\06 - The Price of Love.wav

Pre-gap length 0:00:01.02

Peak level 100.0 %
Track quality 100.0 %
Test CRC 9394D425
Copy CRC 9394D425
Track not present in AccurateRip database
Copy OK

Track 7

Filename C:\Bryan Ferry - Let's Stick Together (1976) [FLAC] {EMI Music Japan, VJCP-68814}\07 - Chance Meeting.wav

Pre-gap length 0:00:02.72

Peak level 98.1 %
Track quality 100.0 %
Test CRC 6EAD3545
Copy CRC 6EAD3545
Track not present in AccurateRip database
Copy OK

Track 8

Filename C:\Bryan Ferry - Let's Stick Together (1976) [FLAC] {EMI Music Japan, VJCP-68814}\08 - It's Only Love.wav

Pre-gap length 0:00:01.76

Peak level 98.1 %
Track quality 100.0 %
Test CRC CC0C6A14
Copy CRC CC0C6A14
Track not present in AccurateRip database
Copy OK

Track 9

Filename C:\Bryan Ferry - Let's Stick Together (1976) [FLAC] {EMI Music Japan, VJCP-68814}\09 - You Go to My Head.wav

Pre-gap length 0:00:02.02

Peak level 99.9 %
Track quality 100.0 %
Test CRC F3E3C369
Copy CRC F3E3C369
Track not present in AccurateRip database
Copy OK

Track 10

Filename C:\Bryan Ferry - Let's Stick Together (1976) [FLAC] {EMI Music Japan, VJCP-68814}\10 - Re-make,Re-model.wav

Pre-gap length 0:00:01.52

Peak level 99.7 %
Track quality 100.0 %
Test CRC 45E35D77
Copy CRC 45E35D77
Track not present in AccurateRip database
Copy OK

Track 11

Filename C:\Bryan Ferry - Let's Stick Together (1976) [FLAC] {EMI Music Japan, VJCP-68814}\11 - Heart on My Sleeve.wav

Pre-gap length 0:00:01.33

Peak level 99.9 %
Track quality 100.0 %
Test CRC EB87C972
Copy CRC EB87C972
Track not present in AccurateRip database
Copy OK


None of the tracks are present in the AccurateRip database

No errors occurred

End of status report

[CUETools log; Date: 23.05.2018 1:47:52; Version: 2.1.4]
HDCD: peak extend: none, transient filter: none, gain: none
[CTDB TOCID: 3mkK08APNgFa.8QE3oPYwT7bEdU-] found.
Track | CTDB Status
1 | (3/3) Accurately ripped
2 | (3/3) Accurately ripped
3 | (3/3) Accurately ripped
4 | (3/3) Accurately ripped
5 | (3/3) Accurately ripped
6 | (3/3) Accurately ripped
7 | (3/3) Accurately ripped
8 | (3/3) Accurately ripped
9 | (3/3) Accurately ripped
10 | (3/3) Accurately ripped
11 | (3/3) Accurately ripped
[AccurateRip ID: 00101f3b-008b2e01-7e08e60b] found.
Track [ CRC | V2 ] Status
01 [e5c1ab6e|aa94199b] (0+4/4) Accurately ripped
02 [ae028e27|bb04e308] (0+4/4) Accurately ripped
03 [2a890d93|4b6f35f0] (0+4/4) Accurately ripped
04 [51bbcdf8|c1e0836f] (0+4/4) Accurately ripped
05 [c6414b93|20b8c466] (0+4/4) Accurately ripped
06 [9dc7fd13|e4250ff2] (0+4/4) Accurately ripped
07 [9517c7b0|99d9e859] (0+4/4) Accurately ripped
08 [a24ec599|30049175] (0+4/4) Accurately ripped
09 [2b7a5085|ec661638] (0+4/4) Accurately ripped
10 [15a9f6bb|09e596f1] (0+4/4) Accurately ripped
11 [c50a3540|17a37f1f] (0+4/4) Accurately ripped

Track Peak [ CRC32 ] [W/O NULL] [ LOG ]
– 100,0 [C3957556] [21B5C491]
01 98,1 [7314B621] [033E3713] CRC32
02 98,1 [A0C261B5] [7ABC8F55] CRC32
03 99,9 [DA6047A1] [D366F57A] CRC32
04 99,3 [4E2D4F04] [06A9B039] CRC32
05 98,1 [511E0E1E] [7A3715C4] CRC32
06 100,0 [9394D425] [6C49F5F4] CRC32
07 98,1 [6EAD3545] [3587301B] CRC32
08 98,1 [CC0C6A14] [E1961B22] CRC32
09 99,9 [F3E3C369] [2B171A1E] CRC32
10 99,7 [45E35D77] [5E2A873C] CRC32
11 99,9 [EB87C972] [87C347AE] CRC32

foobar2000 1.2 / Dynamic Range Meter 1.1.1
log date: 2013-06-09 14:08:42

––––––––––––––––––––––––––––––––––––––––
Analyzed: Bryan Ferry / Let's Stick Together
––––––––––––––––––––––––––––––––––––––––

DR Peak RMS Duration Track
––––––––––––––––––––––––––––––––––––––––
DR8 -0.16 dB -9.11 dB 3:00 01-Let's Stick Together
DR8 -0.16 dB -9.03 dB 2:47 02-Casanova
DR8 0.00 dB -11.71 dB 6:11 03-Sea Breezes
DR7 -0.06 dB -8.54 dB 3:15 04-Shame, Shame, Shame
DR8 -0.16 dB -9.94 dB 3:15 05-2 HB
DR7 0.00 dB -8.18 dB 3:28 06-The Price of Love
DR9 -0.17 dB -12.63 dB 3:16 07-Chance Meeting
DR7 -0.16 dB -9.06 dB 3:50 08-It's Only Love
DR10 -0.01 dB -11.26 dB 2:43 09-You Go to My Head
DR8 -0.02 dB -8.82 dB 2:44 10-Re-make/Re-model
DR9 0.00 dB -9.60 dB 3:30 11-Heart on My Sleeve
––––––––––––––––––––––––––––––––––––––––

Number of tracks: 11
Official DR value: DR8

Samplerate: 44100 Hz
Channels: 2
Bits per sample: 16
Bitrate: 839 kbps
Codec: FLAC
================================================================================

Food Additives (Repost)

Food Additives (Repost)