Tags
Language
Tags

Buddy Guy & Junior Wells - Play the Blues (Remastered Deluxe Edition) (1972/2005)

Posted By: Rtax
Buddy Guy & Junior Wells - Play the Blues (Remastered Deluxe Edition) (1972/2005)

Buddy Guy & Junior Wells - Play the Blues (Remastered Deluxe Edition) (1972/2005)
EAC Rip | FLAC (tracks, cue, log) - 696 MB | MP3 CBR 320 kbps - 272 MB
1:58:07 | Blues, Modern Electric Chicago Blues | Label: Rhino Handmade

Just off tour with The Rolling Stones, blues legends Buddy Guy and Junior Wells teamed with Eric Clapton for this 1970 album collaboration that includes a guest appearance by Dr. John. This reissue/remaster includes a 2nd disc of 13 bonus tracks plus new liner notes by Johnny Winter!

We're not normally ones to rave about electric blues albums, but this one's a lot nicer than you might think – recorded with plenty of deep soul touches, and even a dose of funk in the right places! We hate to admit it, but a big part of the credit here goes to Eric Clapton – who produced most of the record and gives Buddy and Junior a tightness that's missing from some of their other records of the time. There's almost a post-Cream sort of groove to the record – that "hipper than rock" sensibility that colored many of Clapton's old group members' projects for Atlantic in the years after Cream disbanded. But of course, Buddy Guy & Junior Wells are the real stars of the set – and the record's good enough to make even jaded Chicago residents like us appreciate their talents here! Titles include "A Poor Man's Plea", "My Baby She Left Me", "A Man Of Many Words", "I Don't Know", and "This Old Fool". 2CD set features a whopping huge batch of bonus tracks – including "Tears Tears Tears", "Checkin Up On My Baby", "Last Night", "Bad Bad Whiskey (long version)", "You're So Fine (mono rough mix)", "Stone Crazy", "Dirty Mother For You", "D Blues", and "First Time I Met The Blues".

Tracklist
Disc One
1 A Man Of Many Words
2 My Baby Left Me (She Left Me A Mule To Ride)
3 A. Come On In This House B. Have Mercy Baby
4 T - Bone Shuffle
5 A Poor Man's Plea
6 Messin' With The Kid
7 This Old Fool
8 I Don't Know
9 Bad Bad Whiskey
10 Honeydripper
11 Dirty Mother For You
12 Stone Crazy
13 Why Am I Treated So Bad? (Playin' The Blues)

Disc Two
1 Tears, Tears, Tears
2 Love Her With A Feeling
3 Checkin' Up On My Baby
4 Last Night
5 First Time I Met The Blues
6 D Blues
7 Bad Bad Whiskey (Long Version)
8 You're So Fine (Mono Rough Mix)
9 Why Am I Treated So Bad? (Playin' The Blues) (Mono Rough Mix)
10 Sweet Home Chicago (Mono Rough Mix)
Exact Audio Copy V1.2 from 12. August 2016

EAC extraction logfile from 9. May 2017, 21:48

Buddy Guy & Junior Wells / Buddy Guy & Junior Wells Play The Blues (Disc 1)

Used drive : HL-DT-STBD-RE WH14NS40 Adapter: 1 ID: 0

Read mode : Secure
Utilize accurate stream : Yes
Defeat audio cache : Yes
Make use of C2 pointers : No

Read offset correction : 6
Overread into Lead-In and Lead-Out : No
Fill up missing offset samples with silence : Yes
Delete leading and trailing silent blocks : No
Null samples used in CRC calculations : Yes
Used interface : Native Win32 interface for Win NT & 2000
Gap handling : Left out

Used output format : Internal WAV Routines
Sample format : 44.100 Hz; 16 Bit; Stereo


TOC of the extracted CD

Track | Start | Length | Start sector | End sector
––––––––––––––––––––––––––––-
1 | 0:00.00 | 4:01.53 | 0 | 18127
2 | 4:01.53 | 3:11.47 | 18128 | 32499
3 | 7:13.25 | 4:24.04 | 32500 | 52303
4 | 11:37.29 | 4:20.36 | 52304 | 71839
5 | 15:57.65 | 3:14.33 | 71840 | 86422
6 | 19:12.23 | 2:16.00 | 86423 | 96622
7 | 21:28.23 | 3:11.55 | 96623 | 111002
8 | 24:40.03 | 4:31.62 | 111003 | 131389
9 | 29:11.65 | 4:16.18 | 131390 | 150607
10 | 33:28.08 | 3:57.04 | 150608 | 168386
11 | 37:25.12 | 5:57.44 | 168387 | 195205
12 | 43:22.56 | 9:34.06 | 195206 | 238261
13 | 52:56.62 | 6:45.70 | 238262 | 268706


Track 1

Filename E:\Ripped Albums\Buddy Guy & Junior Wells-Buddy Guy & Junior Wells Play The Blues (Disc 1)-2005\01-A Man Of Many Words.wav

Pre-gap length 0:00:02.00

Peak level 96.3 %
Extraction speed 3.3 X
Track quality 100.0 %
Test CRC CDB46828
Copy CRC CDB46828
Track not fully ripped for AccurateRip lookup
Copy OK

Track 2

Filename E:\Ripped Albums\Buddy Guy & Junior Wells-Buddy Guy & Junior Wells Play The Blues (Disc 1)-2005\02-My Baby She Left Me (She Left Me A Mule To Ride).wav

Pre-gap length 0:00:01.88

Peak level 99.8 %
Extraction speed 2.4 X
Track quality 100.0 %
Test CRC E36F39AE
Copy CRC E36F39AE
Track not fully ripped for AccurateRip lookup
Copy OK

Track 3

Filename E:\Ripped Albums\Buddy Guy & Junior Wells-Buddy Guy & Junior Wells Play The Blues (Disc 1)-2005\03-a. Come On In Baby b. Have Mercy Baby.wav

Pre-gap length 0:00:02.13

Peak level 95.1 %
Extraction speed 1.5 X
Track quality 100.0 %
Test CRC CD1AF5D5
Copy CRC CD1AF5D5
Track not fully ripped for AccurateRip lookup
Copy OK

Track 4

Filename E:\Ripped Albums\Buddy Guy & Junior Wells-Buddy Guy & Junior Wells Play The Blues (Disc 1)-2005\04-T-Bone Shuffle.wav

Pre-gap length 0:00:01.90

Peak level 98.8 %
Extraction speed 1.4 X
Track quality 100.0 %
Test CRC FB226E57
Copy CRC FB226E57
Track not fully ripped for AccurateRip lookup
Copy OK

Track 5

Filename E:\Ripped Albums\Buddy Guy & Junior Wells-Buddy Guy & Junior Wells Play The Blues (Disc 1)-2005\05-A Poor Man's Plea.wav

Pre-gap length 0:00:01.58

Peak level 87.0 %
Extraction speed 1.4 X
Track quality 100.0 %
Test CRC C174B0FA
Copy CRC C174B0FA
Track not fully ripped for AccurateRip lookup
Copy OK

Track 6

Filename E:\Ripped Albums\Buddy Guy & Junior Wells-Buddy Guy & Junior Wells Play The Blues (Disc 1)-2005\06-Messin' With The Kid.wav

Pre-gap length 0:00:02.10

Peak level 90.3 %
Extraction speed 1.4 X
Track quality 100.0 %
Test CRC F07035E9
Copy CRC F07035E9
Track not fully ripped for AccurateRip lookup
Copy OK

Track 7

Filename E:\Ripped Albums\Buddy Guy & Junior Wells-Buddy Guy & Junior Wells Play The Blues (Disc 1)-2005\07-This Old Fool.wav

Pre-gap length 0:00:02.28

Peak level 95.8 %
Extraction speed 1.5 X
Track quality 100.0 %
Test CRC D5A97FC2
Copy CRC D5A97FC2
Track not fully ripped for AccurateRip lookup
Copy OK

Track 8

Filename E:\Ripped Albums\Buddy Guy & Junior Wells-Buddy Guy & Junior Wells Play The Blues (Disc 1)-2005\08-I Don't Know.wav

Pre-gap length 0:00:02.74

Peak level 96.4 %
Extraction speed 1.7 X
Track quality 100.0 %
Test CRC 4B20025A
Copy CRC 4B20025A
Track not fully ripped for AccurateRip lookup
Copy OK

Track 9

Filename E:\Ripped Albums\Buddy Guy & Junior Wells-Buddy Guy & Junior Wells Play The Blues (Disc 1)-2005\09-Bad Bad Whisky.wav

Pre-gap length 0:00:03.84

Peak level 97.1 %
Extraction speed 1.8 X
Track quality 100.0 %
Test CRC 867969DE
Copy CRC 867969DE
Track not fully ripped for AccurateRip lookup
Copy OK

Track 10

Filename E:\Ripped Albums\Buddy Guy & Junior Wells-Buddy Guy & Junior Wells Play The Blues (Disc 1)-2005\10-Honeydripper.wav

Pre-gap length 0:00:02.38

Peak level 92.2 %
Extraction speed 1.8 X
Track quality 100.0 %
Test CRC 36AB9B3D
Copy CRC 36AB9B3D
Track not fully ripped for AccurateRip lookup
Copy OK

Track 11

Filename E:\Ripped Albums\Buddy Guy & Junior Wells-Buddy Guy & Junior Wells Play The Blues (Disc 1)-2005\11-Dirty Mother For You.wav

Pre-gap length 0:00:03.93

Peak level 99.8 %
Extraction speed 2.0 X
Track quality 100.0 %
Test CRC C499A9D4
Copy CRC C499A9D4
Track not fully ripped for AccurateRip lookup
Copy OK

Track 12

Filename E:\Ripped Albums\Buddy Guy & Junior Wells-Buddy Guy & Junior Wells Play The Blues (Disc 1)-2005\12-Stone Crazy.wav

Pre-gap length 0:00:02.58

Peak level 99.8 %
Extraction speed 2.1 X
Track quality 99.9 %
Test CRC 5DB23133
Copy CRC 5DB23133
Track not fully ripped for AccurateRip lookup
Copy OK

Track 13

Filename E:\Ripped Albums\Buddy Guy & Junior Wells-Buddy Guy & Junior Wells Play The Blues (Disc 1)-2005\13-Why Am I Treated So Bad (Playin' The Blues).wav

Pre-gap length 0:00:02.04

Peak level 99.8 %
Extraction speed 2.3 X
Track quality 100.0 %
Test CRC 01B15206
Copy CRC 01B15206
Accurately ripped (confidence 6) [00EDBD0F] (AR v2)
Copy OK


1 track(s) accurately ripped
12 track(s) not fully ripped for AccurateRip lookup

Some tracks could not be verified as accurate

No errors occurred

End of status report

==== Log checksum 402EDC1BC4038EEA4AD7069554E7649293BF06D4BF3C7583FA0A7233DEA4B9D4 ====


Exact Audio Copy V1.2 from 12. August 2016

EAC extraction logfile from 30. March 2017, 15:27

Buddy Guy & Junior Wells / Buddy Guy & Junior Wells Play The Blues (Disc 2)

Used drive : HL-DT-STBD-RE WH14NS40 Adapter: 1 ID: 0

Read mode : Secure
Utilize accurate stream : Yes
Defeat audio cache : Yes
Make use of C2 pointers : No

Read offset correction : 6
Overread into Lead-In and Lead-Out : No
Fill up missing offset samples with silence : Yes
Delete leading and trailing silent blocks : No
Null samples used in CRC calculations : Yes
Used interface : Native Win32 interface for Win NT & 2000
Gap handling : Left out

Used output format : Internal WAV Routines
Sample format : 44.100 Hz; 16 Bit; Stereo


TOC of the extracted CD

Track | Start | Length | Start sector | End sector
––––––––––––––––––––––––––––-
1 | 0:00.00 | 4:36.25 | 0 | 20724
2 | 4:36.25 | 9:13.71 | 20725 | 62270
3 | 13:50.21 | 5:39.07 | 62271 | 87702
4 | 19:29.28 | 7:52.60 | 87703 | 123162
5 | 27:22.13 | 6:17.18 | 123163 | 151455
6 | 33:39.31 | 8:53.24 | 151456 | 191454
7 | 42:32.55 | 5:59.48 | 191455 | 218427
8 | 48:32.28 | 2:47.45 | 218428 | 230997
9 | 51:19.73 | 3:56.28 | 230998 | 248725
10 | 55:16.26 | 4:00.52 | 248726 | 266777


Track 1

Filename E:\Ripped Albums\Buddy Guy & Junior Wells-Buddy Guy & Junior Wells Play The Blues (Disc 2)-2005\01-Tears, Tears, Tears.wav

Pre-gap length 0:00:02.00

Peak level 99.8 %
Extraction speed 1.0 X
Track quality 99.9 %
Test CRC 5FF3D3DD
Copy CRC 5FF3D3DD
Track not fully ripped for AccurateRip lookup
Copy OK

Track 2

Filename E:\Ripped Albums\Buddy Guy & Junior Wells-Buddy Guy & Junior Wells Play The Blues (Disc 2)-2005\02-Love Her With A Feeling.wav

Pre-gap length 0:00:02.12

Peak level 99.8 %
Extraction speed 1.4 X
Track quality 100.0 %
Test CRC 955E9FCC
Copy CRC 955E9FCC
Track not fully ripped for AccurateRip lookup
Copy OK

Track 3

Filename E:\Ripped Albums\Buddy Guy & Junior Wells-Buddy Guy & Junior Wells Play The Blues (Disc 2)-2005\03-Checkin' Up On My Baby.wav

Pre-gap length 0:00:01.74

Peak level 99.8 %
Extraction speed 1.5 X
Track quality 100.0 %
Test CRC E38A28DC
Copy CRC E38A28DC
Track not fully ripped for AccurateRip lookup
Copy OK

Track 4

Filename E:\Ripped Albums\Buddy Guy & Junior Wells-Buddy Guy & Junior Wells Play The Blues (Disc 2)-2005\04-Last Night.wav

Pre-gap length 0:00:03.30

Peak level 99.8 %
Extraction speed 1.7 X
Track quality 100.0 %
Test CRC 7CD8E891
Copy CRC 7CD8E891
Track not fully ripped for AccurateRip lookup
Copy OK

Track 5

Filename E:\Ripped Albums\Buddy Guy & Junior Wells-Buddy Guy & Junior Wells Play The Blues (Disc 2)-2005\05-First Time I Met The Blues.wav

Pre-gap length 0:00:03.57

Peak level 99.8 %
Extraction speed 1.8 X
Track quality 100.0 %
Test CRC C9972352
Copy CRC C9972352
Track not fully ripped for AccurateRip lookup
Copy OK

Track 6

Filename E:\Ripped Albums\Buddy Guy & Junior Wells-Buddy Guy & Junior Wells Play The Blues (Disc 2)-2005\06-D Blues.wav

Pre-gap length 0:00:03.14

Peak level 99.8 %
Extraction speed 2.0 X
Track quality 100.0 %
Test CRC D1FCA0A1
Copy CRC D1FCA0A1
Track not fully ripped for AccurateRip lookup
Copy OK

Track 7

Filename E:\Ripped Albums\Buddy Guy & Junior Wells-Buddy Guy & Junior Wells Play The Blues (Disc 2)-2005\07-Bad Bad Whiskey (Long Version).wav

Pre-gap length 0:00:01.73

Peak level 99.8 %
Extraction speed 2.1 X
Track quality 100.0 %
Test CRC 198116F1
Copy CRC 198116F1
Track not fully ripped for AccurateRip lookup
Copy OK

Track 8

Filename E:\Ripped Albums\Buddy Guy & Junior Wells-Buddy Guy & Junior Wells Play The Blues (Disc 2)-2005\08-You're So Fine (Mono Rough Mix).wav

Pre-gap length 0:00:02.66

Peak level 86.5 %
Extraction speed 1.6 X
Track quality 99.9 %
Test CRC 241AD144
Copy CRC 241AD144
Track not fully ripped for AccurateRip lookup
Copy OK

Track 9

Filename E:\Ripped Albums\Buddy Guy & Junior Wells-Buddy Guy & Junior Wells Play The Blues (Disc 2)-2005\09-Why Am I Treated So Bad (Playin The Blues)(Mono Rough Mix).wav

Pre-gap length 0:00:02.25

Peak level 89.5 %
Extraction speed 1.8 X
Track quality 99.9 %
Test CRC 64154ACD
Copy CRC 64154ACD
Track not fully ripped for AccurateRip lookup
Copy OK

Track 10

Filename E:\Ripped Albums\Buddy Guy & Junior Wells-Buddy Guy & Junior Wells Play The Blues (Disc 2)-2005\10-Sweet Home Chicago (Mono Rough Mix).wav

Pre-gap length 0:00:02.36

Peak level 88.9 %
Extraction speed 1.9 X
Track quality 99.9 %
Test CRC E72CC0C6
Copy CRC E72CC0C6
Accurately ripped (confidence 6) [C9210362] (AR v2)
Copy OK


1 track(s) accurately ripped
9 track(s) not fully ripped for AccurateRip lookup

Some tracks could not be verified as accurate

No errors occurred

End of status report

==== Log checksum A0A7C570BDE730BE82588265D2F25E5ACD92B542F6700E13A537DD70A0CFCB8F ====

Numbered limited edition of 2500