Tags
Language
Tags
July 2024
Su Mo Tu We Th Fr Sa
30 1 2 3 4 5 6
7 8 9 10 11 12 13
14 15 16 17 18 19 20
21 22 23 24 25 26 27
28 29 30 31 1 2 3

Burning Spear - Man In The Hills (1976) + Dry & Heavy (1977) [2LP on 1CD, Remastered 2003]

Posted By: Designol
Burning Spear - Man In The Hills (1976) + Dry & Heavy (1977) [2LP on 1CD, Remastered 2003]

Burning Spear - Man In The Hills (1976) + Dry & Heavy (1977) [2LP on 1CD, 2003]
EAC | FLAC | Tracks (Cue&Log) ~ 374 Mb | Mp3 (CBR320) ~ 151 Mb | Scans ~ 123 Mb
Roots Reggae | Label: Island Def Jam | # 440 063 072-2 | Time: 01:06:13

Coming after the highly acclaimed Marcus Garvey (1975), Burning Spear's fourth album, Man in the Hills (1976), had a lot to live up to. It is generally conceded that they did not craft an equally impressive follow-up, but Man in the Hills has its charms nevertheless. Lead singer and main songwriter Winston Rodney turns back to reflections on his rural Jamaican childhood for many of the lyrics, which gives the album a gentler, more nostalgic message than the political, exhortative Marcus Garvey. Rodney's tenor is well suited to the sentiments, and the all-star band assembled to back him is supportive and, especially in the horn charts, complementary to the lead voice. The demands of recording schedules may have caused Burning Spear to recast earlier songs, but that contributes to the album's theme of looking back. "Door Peep" was the first song Burning Spear released in its Studio One days, and "No More War" updates the Jamaicans' 1967 song "Ba Ba Boom." With Dry & Heavy (1977), Burning Spear consisted only of Rodney, who also jettisoned producer Laurence "Jack Ruby" Lindo and handled the board himself. This time, he went in for remakes in a big way – seven of the nine songs date from Studio One, with only the title song, another recollection of childhood, and the anti-violence statement "Throw Down Your Arms" newly written. (The titles, however, have usually been changed. "It's a Long Way Around" is a new version of "Creation Rebel," "Black Disciples" is "Swell Headed," "Any River" is "Down by the Riverside," "The Sun" is "Call on You," "I W.I.N." is "This Race," and "Shout It Out" is "Free Again.") But even if the songs are old, the performances are powerful, and the combination of the two albums here makes for an excellent CD reissue.

Review by William Ruhlmann, Allmusic.com

Burning Spear - Man In The Hills (1976) + Dry & Heavy (1977) [2LP on 1CD, Remastered 2003]



Tracklist:

Man in the Hills (1976):

01. Man In The Hills (3:59)
02. It's Good (2:45)
03. No More War (3:19)
04. Black Soul (3:24)
05. Lion (3:13)
06. People Get Ready (3:22)
07. Children (3:42)
08. Mother (3:37)
09. Door Peep (2:40)
10. Groovy (3:57)

Dry & Heavy (1977):

11. Any River (3:20)
12. The Sun (3:43)
13. It's A Long Way Around (3:07)
14. I W.I.N. (3:47)
15. Throw Down Your Arms (4:06)
16. Dry & Heavy (3:29)
17. Wailing (2:49)
18. Black Disciples (4:26)
19. Shout It Out (3:27)


Exact Audio Copy V1.3 from 2. September 2016

EAC extraction logfile from 25. December 2018, 16:11

Burning Spear / Man in the Hills / Dry & Heavy

Used drive : ASUS BW-12D1S-U Adapter: 1 ID: 1

Read mode : Secure
Utilize accurate stream : Yes
Defeat audio cache : Yes
Make use of C2 pointers : No

Read offset correction : 667
Overread into Lead-In and Lead-Out : No
Fill up missing offset samples with silence : Yes
Delete leading and trailing silent blocks : No
Null samples used in CRC calculations : Yes
Used interface : Native Win32 interface for Win NT & 2000
Gap handling : Appended to previous track

Used output format : User Defined Encoder
Selected bitrate : 1024 kBit/s
Quality : High
Add ID3 tag : No
Command line compressor : C:\Program Files (x86)\Exact Audio Copy\FLAC\FLAC.EXE
Additional command line options : -V -8 -T "Genre=%genre%" -T "Artist=%artist%" -T "Title=%title%" -T "Album=%albumtitle%" -T "Date=%year%" -T "Tracknumber=%tracknr%" -T "Comment=%comment%" %source%


TOC of the extracted CD

Track | Start | Length | Start sector | End sector
––––––––––––––––––––––––––––-
1 | 0:00.00 | 3:59.12 | 0 | 17936
2 | 3:59.12 | 2:45.32 | 17937 | 30343
3 | 6:44.44 | 3:18.72 | 30344 | 45265
4 | 10:03.41 | 3:23.69 | 45266 | 60559
5 | 13:27.35 | 3:13.23 | 60560 | 75057
6 | 16:40.58 | 3:22.08 | 75058 | 90215
7 | 20:02.66 | 3:42.23 | 90216 | 106888
8 | 23:45.14 | 3:36.59 | 106889 | 123147
9 | 27:21.73 | 2:39.48 | 123148 | 135120
10 | 30:01.46 | 3:56.71 | 135121 | 152891
11 | 33:58.42 | 3:19.43 | 152892 | 167859
12 | 37:18.10 | 3:43.28 | 167860 | 184612
13 | 41:01.38 | 3:07.10 | 184613 | 198647
14 | 44:08.48 | 3:47.33 | 198648 | 215705
15 | 47:56.06 | 4:05.60 | 215706 | 234140
16 | 52:01.66 | 3:29.30 | 234141 | 249845
17 | 55:31.21 | 2:48.62 | 249846 | 262507
18 | 58:20.08 | 4:25.63 | 262508 | 282445
19 | 62:45.71 | 3:27.03 | 282446 | 297973


Track 1

Filename E:\Torrents of Autumn\Burning Spear [2003] Man in the Hills (1976) + Dry & Heavy (1977)\01. Man In The Hills.wav

Pre-gap length 0:00:02.00

Peak level 98.8 %
Extraction speed 4.9 X
Track quality 100.0 %
Test CRC 028FF435
Copy CRC 028FF435
Accurately ripped (confidence 8) [4BA30333] (AR v2)
Copy OK

Track 2

Filename E:\Torrents of Autumn\Burning Spear [2003] Man in the Hills (1976) + Dry & Heavy (1977)\02. It's Good.wav

Peak level 98.8 %
Extraction speed 4.9 X
Track quality 100.0 %
Test CRC A717D518
Copy CRC A717D518
Accurately ripped (confidence 8) [8A17C743] (AR v2)
Copy OK

Track 3

Filename E:\Torrents of Autumn\Burning Spear [2003] Man in the Hills (1976) + Dry & Heavy (1977)\03. No More War.wav

Peak level 98.8 %
Extraction speed 5.4 X
Track quality 100.0 %
Test CRC 474FD53D
Copy CRC 474FD53D
Accurately ripped (confidence 8) [24864423] (AR v2)
Copy OK

Track 4

Filename E:\Torrents of Autumn\Burning Spear [2003] Man in the Hills (1976) + Dry & Heavy (1977)\04. Black Soul.wav

Peak level 98.8 %
Extraction speed 5.7 X
Track quality 100.0 %
Test CRC 2C5EA239
Copy CRC 2C5EA239
Accurately ripped (confidence 8) [7BFE99B9] (AR v2)
Copy OK

Track 5

Filename E:\Torrents of Autumn\Burning Spear [2003] Man in the Hills (1976) + Dry & Heavy (1977)\05. Lion.wav

Peak level 98.8 %
Extraction speed 5.8 X
Track quality 100.0 %
Test CRC CB579818
Copy CRC CB579818
Accurately ripped (confidence 8) [42E535E1] (AR v2)
Copy OK

Track 6

Filename E:\Torrents of Autumn\Burning Spear [2003] Man in the Hills (1976) + Dry & Heavy (1977)\06. People Get Ready.wav

Peak level 98.8 %
Extraction speed 6.1 X
Track quality 100.0 %
Test CRC DA39112B
Copy CRC DA39112B
Accurately ripped (confidence 8) [859F0C9A] (AR v2)
Copy OK

Track 7

Filename E:\Torrents of Autumn\Burning Spear [2003] Man in the Hills (1976) + Dry & Heavy (1977)\07. Children.wav

Peak level 98.8 %
Extraction speed 6.4 X
Track quality 100.0 %
Test CRC D53BFBA8
Copy CRC D53BFBA8
Accurately ripped (confidence 8) [53901EB1] (AR v2)
Copy OK

Track 8

Filename E:\Torrents of Autumn\Burning Spear [2003] Man in the Hills (1976) + Dry & Heavy (1977)\08. Mother.wav

Peak level 91.2 %
Extraction speed 5.9 X
Track quality 99.9 %
Test CRC 5F5C03A8
Copy CRC 5F5C03A8
Accurately ripped (confidence 8) [AA8B52C4] (AR v2)
Copy OK

Track 9

Filename E:\Torrents of Autumn\Burning Spear [2003] Man in the Hills (1976) + Dry & Heavy (1977)\09. Door Peep.wav

Peak level 98.8 %
Extraction speed 6.6 X
Track quality 100.0 %
Test CRC 34590429
Copy CRC 34590429
Accurately ripped (confidence 8) [14267D3F] (AR v2)
Copy OK

Track 10

Filename E:\Torrents of Autumn\Burning Spear [2003] Man in the Hills (1976) + Dry & Heavy (1977)\10. Groovy.wav

Peak level 98.8 %
Extraction speed 7.1 X
Track quality 100.0 %
Test CRC B9EB81D4
Copy CRC B9EB81D4
Accurately ripped (confidence 8) [EA3EC831] (AR v2)
Copy OK

Track 11

Filename E:\Torrents of Autumn\Burning Spear [2003] Man in the Hills (1976) + Dry & Heavy (1977)\11. Any River.wav

Peak level 88.1 %
Extraction speed 7.1 X
Track quality 100.0 %
Test CRC BC3528D7
Copy CRC BC3528D7
Accurately ripped (confidence 8) [46860CA7] (AR v2)
Copy OK

Track 12

Filename E:\Torrents of Autumn\Burning Spear [2003] Man in the Hills (1976) + Dry & Heavy (1977)\12. The Sun.wav

Peak level 83.1 %
Extraction speed 7.4 X
Track quality 100.0 %
Test CRC C5AC7840
Copy CRC C5AC7840
Accurately ripped (confidence 8) [B284BA20] (AR v2)
Copy OK

Track 13

Filename E:\Torrents of Autumn\Burning Spear [2003] Man in the Hills (1976) + Dry & Heavy (1977)\13. It's A Long Way Around.wav

Peak level 79.4 %
Extraction speed 7.3 X
Track quality 100.0 %
Test CRC E29ACDB3
Copy CRC E29ACDB3
Accurately ripped (confidence 7) [AA12BD2F] (AR v2)
Copy OK

Track 14

Filename E:\Torrents of Autumn\Burning Spear [2003] Man in the Hills (1976) + Dry & Heavy (1977)\14. I W.I.N..wav

Peak level 86.1 %
Extraction speed 7.7 X
Track quality 100.0 %
Test CRC FF49AD82
Copy CRC FF49AD82
Accurately ripped (confidence 8) [72EDC7FE] (AR v2)
Copy OK

Track 15

Filename E:\Torrents of Autumn\Burning Spear [2003] Man in the Hills (1976) + Dry & Heavy (1977)\15. Throw Down Your Arms.wav

Peak level 83.1 %
Extraction speed 8.1 X
Track quality 100.0 %
Test CRC 16545E7F
Copy CRC 16545E7F
Accurately ripped (confidence 8) [A2C9667D] (AR v2)
Copy OK

Track 16

Filename E:\Torrents of Autumn\Burning Spear [2003] Man in the Hills (1976) + Dry & Heavy (1977)\16. Dry & Heavy.wav

Peak level 88.1 %
Extraction speed 8.0 X
Track quality 100.0 %
Test CRC 71C77C87
Copy CRC 71C77C87
Accurately ripped (confidence 8) [6B6876AB] (AR v2)
Copy OK

Track 17

Filename E:\Torrents of Autumn\Burning Spear [2003] Man in the Hills (1976) + Dry & Heavy (1977)\17. Wailing.wav

Peak level 86.1 %
Extraction speed 7.8 X
Track quality 100.0 %
Test CRC 18EE82C4
Copy CRC 18EE82C4
Accurately ripped (confidence 7) [9868EAE7] (AR v2)
Copy OK

Track 18

Filename E:\Torrents of Autumn\Burning Spear [2003] Man in the Hills (1976) + Dry & Heavy (1977)\18. Black Disciples.wav

Peak level 81.3 %
Extraction speed 8.6 X
Track quality 100.0 %
Test CRC F0FEA130
Copy CRC F0FEA130
Accurately ripped (confidence 7) [6C74ADEF] (AR v2)
Copy OK

Track 19

Filename E:\Torrents of Autumn\Burning Spear [2003] Man in the Hills (1976) + Dry & Heavy (1977)\19. Shout It Out.wav

Peak level 88.1 %
Extraction speed 8.4 X
Track quality 100.0 %
Test CRC A126D2A6
Copy CRC A126D2A6
Accurately ripped (confidence 7) [7F62B4E6] (AR v2)
Copy OK


All tracks accurately ripped

No errors occurred

End of status report

–– CUETools DB Plugin V2.1.6

[CTDB TOCID: tjlUTsxK7bJbV4Op6tTVLdoBUww-] found
Submit result: tjlUTsxK7bJbV4Op6tTVLdoBUww- has been confirmed
Track | CTDB Status
1 | (15/15) Accurately ripped
2 | (15/15) Accurately ripped
3 | (15/15) Accurately ripped
4 | (15/15) Accurately ripped
5 | (15/15) Accurately ripped
6 | (15/15) Accurately ripped
7 | (15/15) Accurately ripped
8 | (15/15) Accurately ripped
9 | (15/15) Accurately ripped
10 | (15/15) Accurately ripped
11 | (15/15) Accurately ripped
12 | (14/15) Accurately ripped
13 | (15/15) Accurately ripped
14 | (14/15) Accurately ripped
15 | (15/15) Accurately ripped
16 | (14/15) Accurately ripped
17 | (14/15) Accurately ripped
18 | (14/15) Accurately ripped
19 | (14/15) Accurately ripped


==== Log checksum 0D08F04820F6109B2C7E1C1974EC987ADF7CC4F6A856173697CDED1981C10D91 ====

foobar2000 1.2 / Dynamic Range Meter 1.1.1
log date: 2018-12-28 21:41:06

––––––––––––––––––––––––––––––––––––––––
Analyzed: Burning Spear / Man in the Hills / Dry & Heavy
––––––––––––––––––––––––––––––––––––––––

DR Peak RMS Duration Track
––––––––––––––––––––––––––––––––––––––––
DR11 -0.10 dB -12.59 dB 3:59 01-Man In The Hills
DR10 -0.10 dB -11.66 dB 2:45 02-It's Good
DR11 -0.10 dB -12.11 dB 3:19 03-No More War
DR10 -0.10 dB -11.71 dB 3:24 04-Black Soul
DR11 -0.10 dB -12.36 dB 3:13 05-Lion
DR12 -0.10 dB -12.99 dB 3:22 06-People Get Ready
DR13 -0.10 dB -13.92 dB 3:42 07-Children
DR9 -0.80 dB -11.51 dB 3:37 08-Mother
DR12 -0.10 dB -13.45 dB 2:40 09-Door Peep
DR11 -0.10 dB -12.68 dB 3:57 10-Groovy
DR12 -1.10 dB -14.60 dB 3:20 11-Any River
DR11 -1.60 dB -13.16 dB 3:43 12-The Sun
DR11 -2.00 dB -14.74 dB 3:07 13-It's A Long Way Around
DR12 -1.30 dB -14.45 dB 3:47 14-I W.I.N.
DR11 -1.60 dB -13.28 dB 4:06 15-Throw Down Your Arms
DR11 -1.10 dB -13.85 dB 3:29 16-Dry & Heavy
DR11 -1.30 dB -13.11 dB 2:49 17-Wailing
DR10 -1.80 dB -13.11 dB 4:26 18-Black Disciples
DR11 -1.10 dB -12.72 dB 3:27 19-Shout It Out
––––––––––––––––––––––––––––––––––––––––

Number of tracks: 19
Official DR value: DR11

Samplerate: 44100 Hz
Channels: 2
Bits per sample: 16
Bitrate: 803 kbps
Codec: FLAC
================================================================================

Burning Spear - Man In The Hills (1976) + Dry & Heavy (1977) [2LP on 1CD, Remastered 2003]

Burning Spear - Man In The Hills (1976) + Dry & Heavy (1977) [2LP on 1CD, Remastered 2003]

All thanks to original releaser

More interesting music in My Blog