Tags
Language
Tags
March 2024
Su Mo Tu We Th Fr Sa
25 26 27 28 29 1 2
3 4 5 6 7 8 9
10 11 12 13 14 15 16
17 18 19 20 21 22 23
24 25 26 27 28 29 30
31 1 2 3 4 5 6

Charles Mingus - Tonight At Noon (1965) {2000 Label M} **[RE-UP]**

Posted By: TestTickles
Charles Mingus - Tonight At Noon (1965) {2000 Label M} **[RE-UP]**

Charles Mingus - Tonight At Noon (1965) {2000 Label M}
EAC Rip | FLAC with CUE and log | scans | 264 mb
MP3 CBR 320kbps | RAR | 62 mb
Genre: jazz

Tonight At Noon is a 1965 album by legendary jazz bassist Charles Mingus. This version was remastered in 2000 and released by Label M, remastered by Gene Paul.
A valuable reissue for Mingus fans, Tonight at Noon compiles five tunes originally recorded for two of the great bassist's most important album's, 1957's The Clown and 1961's Oh Yeah. Though the two sessions cover somewhat different stylistic ground, they blend together seamlessly and amount to much more than a haphazard assemblage of dusty outtakes.

The earlier session is the more restrained of the two, with Mingus and a typically responsive quintet (trombonist Jimmy Knepper, alto saxophonist Shafi Hadi, pianist Wade Legge and drummer Dannie Richmond) expertly weaving a path between the extremes of European impressionism (on the haunting ”Passions of a Woman Loved”) and hard bop (on the fast-paced title tune). The 1961 date is a more freewheeling journey into the blues and gospel roots of jazz via Duke Ellington, with Mingus switching to piano (an instrument on which he was more than proficient) and handing the bass duties over to Doug Watkins. The hard-swinging group also includes Mingus stalwarts Knepper and Richmond, along with the dynamic saxophone duo of Booker Ervin and Rahsaan Roland Kirk.

Though most of the compositions on Tonight at Noon are not well known (with the exception of “Peggy's Blue Skylight” from the 1961 session) and several make their only appearances in the Mingus catalog here, there's certainly nothing second rate about these tunes. Along with the time limitations of the LP era, one gets the impression that, if anything, they were left off the original albums because they were even more provocative than the selected cuts. This is vital, exciting music.

Charles Mingus - Tonight At Noon (1965) {2000 Label M} **[RE-UP]**

1. Tonight At Noon [5:58]
2. Invisible Lady [4:49]
3. "Old" Blues For Walt's Torin [8:59]
4. Peggy's Blue Skylight [9:42]
5. Passions Of A Woman Loved [9:43]
–-
Produced by Nesuhi Ertegun

Tracks 1 & 5:
Jimmy Knepper-trombone
Shafi Hadi-alto sax
Wade Legge-piano
Charles Mingus-bass
Dannie Richmond-drums
Recorded at Atlantic Studios, NYC on March 12, 1957

Tracks 2-4:
Jimmy Knepper-trombone
Booker Ervin-tenor sax
Rahsaan Roland Kirk-tenor sax, stritch, manzello, flute
Charles Mingus-piano
Doug Watkins-bass
Dannie Richmond-drums
Recorded at Atlantic Studios, NYC on November 6, 1961

Recording engineers: Tom Dowd, Phil Iehle

CD mastered by Gene Paul at DB Plus Digital Services, New York City

EAC extraction logfile from 2. August 2006, 14:06 for CD
Charles Mingus / Tonight At Noon

Used drive : LITE-ON DVDRW SOHW-1633S Adapter: 0 ID: 0
Read mode : Secure with NO C2, accurate stream, disable cache
Read offset correction : 12
Overread into Lead-In and Lead-Out : No

Used output format : Internal WAV Routines
44.100 Hz; 16 Bit; Stereo

Other options :
Fill up missing offset samples with silence : Yes
Delete leading and trailing silent blocks : No
Installed external ASPI interface


Track 1
Filename D:\FLAC\Charles Mingus - Tonight At Noon (1965) [FLAC] {2000 Label M}\01 - Tonight At Noon.wav

Pre-gap length 0:00:02.42

Peak level 99.9 %
Track quality 100.0 %
Test CRC CE33FC97
Copy CRC CE33FC97
Copy OK

Track 2
Filename D:\FLAC\Charles Mingus - Tonight At Noon (1965) [FLAC] {2000 Label M}\02 - Invisible Lady.wav

Pre-gap length 0:00:01.37

Peak level 99.9 %
Track quality 100.0 %
Test CRC 6A2B394B
Copy CRC 6A2B394B
Copy OK

Track 3
Filename D:\FLAC\Charles Mingus - Tonight At Noon (1965) [FLAC] {2000 Label M}\03 - ''Old'' Blues For Walt's Torin.wav

Pre-gap length 0:00:02.66

Peak level 99.9 %
Track quality 99.9 %
Test CRC EA2A1E34
Copy CRC EA2A1E34
Copy OK

Track 4
Filename D:\FLAC\Charles Mingus - Tonight At Noon (1965) [FLAC] {2000 Label M}\04 - Peggy's Blue Skylight.wav

Pre-gap length 0:00:02.42

Peak level 99.9 %
Track quality 100.0 %
Test CRC D7087000
Copy CRC D7087000
Copy OK

Track 5
Filename D:\FLAC\Charles Mingus - Tonight At Noon (1965) [FLAC] {2000 Label M}\05 - Passions Of A Woman Loved.wav

Pre-gap length 0:00:02.36

Peak level 99.9 %
Track quality 100.0 %
Test CRC 3F222910
Copy CRC 3F222910
Copy OK

No errors occured


End of status report



Charles Mingus - Tonight At Noon (1965) {2000 Label M} **[RE-UP]**