Tags
Language
Tags

Chuck Bernstein - Delta Berimbau Blues (2008) {CMB} **[RE-UP]**

Posted By: TestTickles
Chuck Bernstein - Delta Berimbau Blues (2008) {CMB} **[RE-UP]**

Chuck Bernstein - Delta Berimbau Blues (2008) {CMB}
EAC Rip | FLAC with CUE and log | scans | 359 mb
MP3 CBR 320kbps | RAR | 204 mb
Genre: blues

Delta Berimbau Blues is the 2008 album by berimbau master Chuck Bernstein. This was released by Bernstein on his own CMB Records.
By creating my own techniques, I have turned the Brazilian Berimbau into a Mississippi Diddley Bow (one-stringed instruments of African origins) with a built-in Wah-Wah.

Chuck Bernstein - Delta Berimbau Blues (2008) {CMB} **[RE-UP]**

01. Delta Berimbau Blues
02. All Your Desires
03. Dawn In The Delta
04. Kindred Spirits
05. Drop D
06. Viola Foot Stompin' Blues
07. Delta Spirit Dance
08. One Grain Of Sand
09. Plunger In The Funk
10. Blues Para Guinga
11. Darling Cory
12. Bahia Trance Blues
13. Free To Grind
14. Contenda
15. Kelly Blues
16. Flight Of The Golden Dragon


A berim-what???

Yeah, that's right, a berimbau. Indigenous to the northeast region of Brazil, this bad boy is a single wire-stringed percussion musical instrument that's sort of like a bow with a hollowed-out gourd on the bottom of it and played with a wooden stick, with the tone modulated by using a coin-like piece of metal.

The berimbau is not an instrument a whole lot of people in America know how to play, but from the time drummer and percussionist Chuck Bernstein saw Shelly Manne whip one out during a live performance back in the mid-seventies, he was hooked. "There was something about the instrument that totally captivated me" he said. "…its trance-like rhythms and sounds brought to mind Africa, the Samba, and the Mississippi Delta!!! I had to have one!"

Bernstein's quest for mastery of this mysterious instrument eventually brought him someone who taught lessons on it, Dennis Broughton, and before long, he immersed himself in the local Brazilian music of Capoeira, a form of martial arts that the berimbau is used in setting the tempo and style of fighting.

But Chuck saw more out of this strange apparatus than simply keeping alive a rarely-recorded form of folk music. That berimbau emits this swampy, trance-like lightly buzzing sound where notes can be bent. It's a sound that's made for the Delta blues. Bernstein's objective is very straighforward: "My goal, from the very beginning has been to make the berimbau a new voice in American music - Blues, R&B, Roots and Jazz."

As Bernstein later discovered, the berimbau's perfect fit for vintage blues is not quite the coincidental; the Delta slide technique on the guitar has its origin with an African-originated, single-stringed musical bow found in the old American South. This instrument was called the "Diddley Bow"; Bernstein had unwittingly fashioned a Brazilian version of the Diddley Bow!

Delta Berimbau Blues, the realization of Bernstein's stated goal, may be the first berimbau record ever made where this instrument is used primarily outside its usual environs of Brazilian music. Taking advantage of such a wide-open frontier, Bernstein tries out a wide variety of collaborators both instrumentally and compositionally (along with a few covers), and it seems that the collaborative tunes were composed on the spot. Every song has its own character as a result, but the berimbau and the roots bent gives the album a consistent, overarching signature sound.

Throughout these sixteen tracks, blues is the predominant theme, but other forms show up here and there. Most of them are single chord songs, not displaying much melody. It's all about playing off of a vibe. Some highlights:

"Delta Berimbau Blues" introduces the very natural combination of the berimbau and the acoustic guitar. Bernstein is able to handle both the rhythm and chordal key of the song, allowing guitarist Greg Douglass to freely improvise on his slide acoustic. It's a deeply spiritual sound and even though there's no lyrics as there isn't throughout most of the album, the music evokes vivid imagery of backwoods rural Mississippi.

As if to demonstrate the adaptability of this bowed instrument, that song is followed up by the airy, Brazilian samba of "All Your Desires." An acoustic guitar is again accompanying Bernstein, this time by the song's composer, Paul Ledo.

On "Drop D," Bernstein spins a terrific polyrhythm and a low, desolate chord that acoustic guitarist Debbie Sipes expertly uses to build upon with a fervid, building solo.

"Viola Foot Stompin' Blues" pairs Bernstein with another berimbau player, his former teacher Broughton. Broughton plays a high-pitched viola berimbau, while Bernstein plays the low-pitched gunga berimbau, in a distinctive blend of blues and capoeira, high tones and low tones.

The bass player quotes "Bemsha Swing" in the song "Darling Cory," which can be directly traced to Bernstein's love of Thelonius Monk's music. As the leader of Monk's Music Trio and having once inserted a berimbau rhythm on Monk's ""Friday the 13th" for the trio (an experiment Bernstein credits for opening "the door to all sorts of musical possibilities"), it's quite logical to see a tip of the hat to the legendary jazz composer/pianist.

"Plunger In The Funk" combines Bernstein with his Monk's Music Trio cohort stand-up bassist Sam Bevan and whack jazz trombonist extraordinaire Roswell Rudd. The three start with almost nothing to develop a persistent funky groove. Rudd's plunger work with his 'bone has the delightful effect of bringing a little bit of New Orleans to the Delta.

A couple of the songs do feature a vocal and again, Bernstein makes it work well. The first is a Pete Seeger tune "One Grain Of Sand," sung by Lisa Kindred. With Kindred's solemn voice going against the backdrop of the berimbau, the Seeger song comes across much like a spiritual. Bernstein himself sings on "Blues Para Guinga," a tribute to Brazilian singer-songwriting guitarist Carlos Althier de Souza Lemos "Guinga" Escobar. In a marriage of two seemingly disparate cultures, Chuck sings his paean to Guinga in Creole French.

Chuck Bernstein' Delta Berimbau Blues pulls off the impossible trick of recasting the Delta blues in an entirely new light while remaining faithful to its original spirit. Strangely enough, it's comfortably familiar, even if you never heard anything like it before. Ted Gioia, author of "Delta Blues," is already calling this January release a strong candidate for his list of best blues albums of the year. Best or not, it would be hard to come up with another blues record that's as innovative and pure-sounding for this year or most other years, for that matter.

Exact Audio Copy V0.99 prebeta 4 from 23. January 2008

EAC extraction logfile from 13. September 2009, 7:25

Chuck Bernstein / Delta Berimbau Blues

Used drive : TSSTcorpDVD+-RW TS-H653B Adapter: 2 ID: 0

Read mode : Secure
Utilize accurate stream : Yes
Defeat audio cache : Yes
Make use of C2 pointers : No

Read offset correction : 6
Overread into Lead-In and Lead-Out : No
Fill up missing offset samples with silence : Yes
Delete leading and trailing silent blocks : No
Null samples used in CRC calculations : Yes
Used interface : Native Win32 interface for Win NT & 2000
Gap handling : Appended to previous track

Used output format : Internal WAV Routines
Sample format : 44.100 Hz; 16 Bit; Stereo


TOC of the extracted CD

Track | Start | Length | Start sector | End sector
––––––––––––––––––––––––––––-
1 | 0:00.00 | 4:03.33 | 0 | 18257
2 | 4:03.33 | 3:22.19 | 18258 | 33426
3 | 7:25.52 | 2:58.27 | 33427 | 46803
4 | 10:24.04 | 2:21.61 | 46804 | 57439
5 | 12:45.65 | 6:06.52 | 57440 | 84941
6 | 18:52.42 | 2:25.28 | 84942 | 95844
7 | 21:17.70 | 2:09.67 | 95845 | 105586
8 | 23:27.62 | 2:46.01 | 105587 | 118037
9 | 26:13.63 | 4:47.48 | 118038 | 139610
10 | 31:01.36 | 3:46.39 | 139611 | 156599
11 | 34:48.00 | 3:45.58 | 156600 | 173532
12 | 38:33.58 | 3:49.68 | 173533 | 190775
13 | 42:23.51 | 3:02.69 | 190776 | 204494
14 | 45:26.45 | 5:59.65 | 204495 | 231484
15 | 51:26.35 | 5:48.14 | 231485 | 257598
16 | 57:14.49 | 3:53.54 | 257599 | 275127


Track 1

Filename C:\FLAC\Chuck Bernstein - Delta Berimbau Blues (2008) [FLAC] {CMB}\01 - Delta Berimbau Blues.wav

Pre-gap length 0:00:02.00

Peak level 99.9 %
Track quality 100.0 %
Test CRC 42FA9628
Copy CRC 42FA9628
Track not present in AccurateRip database
Copy OK

Track 2

Filename C:\FLAC\Chuck Bernstein - Delta Berimbau Blues (2008) [FLAC] {CMB}\02 - All Your Desires.wav

Pre-gap length 0:00:03.00

Peak level 99.8 %
Track quality 100.0 %
Test CRC 6C470800
Copy CRC 6C470800
Track not present in AccurateRip database
Copy OK

Track 3

Filename C:\FLAC\Chuck Bernstein - Delta Berimbau Blues (2008) [FLAC] {CMB}\03 - Dawn In The Delta.wav

Pre-gap length 0:00:02.00

Peak level 86.7 %
Track quality 100.0 %
Test CRC 38140F4D
Copy CRC 38140F4D
Track not present in AccurateRip database
Copy OK

Track 4

Filename C:\FLAC\Chuck Bernstein - Delta Berimbau Blues (2008) [FLAC] {CMB}\04 - Kindred Spirits.wav

Pre-gap length 0:00:02.00

Peak level 99.9 %
Track quality 100.0 %
Test CRC 032A5A54
Copy CRC 032A5A54
Track not present in AccurateRip database
Copy OK

Track 5

Filename C:\FLAC\Chuck Bernstein - Delta Berimbau Blues (2008) [FLAC] {CMB}\05 - Drop D.wav

Pre-gap length 0:00:02.00

Peak level 99.9 %
Track quality 100.0 %
Test CRC EA6B3D61
Copy CRC EA6B3D61
Track not present in AccurateRip database
Copy OK

Track 6

Filename C:\FLAC\Chuck Bernstein - Delta Berimbau Blues (2008) [FLAC] {CMB}\06 - Viola Foot Stompin' Blues.wav

Pre-gap length 0:00:01.00

Peak level 99.9 %
Track quality 100.0 %
Test CRC 088A1A1B
Copy CRC 088A1A1B
Track not present in AccurateRip database
Copy OK

Track 7

Filename C:\FLAC\Chuck Bernstein - Delta Berimbau Blues (2008) [FLAC] {CMB}\07 - Delta Spirit Dance.wav

Pre-gap length 0:00:02.50

Peak level 99.9 %
Track quality 100.0 %
Test CRC B6ADECE6
Copy CRC B6ADECE6
Track not present in AccurateRip database
Copy OK

Track 8

Filename C:\FLAC\Chuck Bernstein - Delta Berimbau Blues (2008) [FLAC] {CMB}\08 - One Grain Of Sand.wav

Pre-gap length 0:00:03.00

Peak level 93.2 %
Track quality 99.9 %
Test CRC C87D4BC9
Copy CRC C87D4BC9
Track not present in AccurateRip database
Copy OK

Track 9

Filename C:\FLAC\Chuck Bernstein - Delta Berimbau Blues (2008) [FLAC] {CMB}\09 - Plunger In The Funk.wav

Pre-gap length 0:00:02.00

Peak level 99.9 %
Track quality 100.0 %
Test CRC 1A15EBC6
Copy CRC 1A15EBC6
Track not present in AccurateRip database
Copy OK

Track 10

Filename C:\FLAC\Chuck Bernstein - Delta Berimbau Blues (2008) [FLAC] {CMB}\10 - Blues Para Guinga.wav

Pre-gap length 0:00:02.00

Peak level 96.4 %
Track quality 100.0 %
Test CRC 6D17EB60
Copy CRC 6D17EB60
Track not present in AccurateRip database
Copy OK

Track 11

Filename C:\FLAC\Chuck Bernstein - Delta Berimbau Blues (2008) [FLAC] {CMB}\11 - Darling Cory.wav

Pre-gap length 0:00:02.00

Peak level 97.4 %
Track quality 99.9 %
Test CRC DD0367E2
Copy CRC DD0367E2
Track not present in AccurateRip database
Copy OK

Track 12

Filename C:\FLAC\Chuck Bernstein - Delta Berimbau Blues (2008) [FLAC] {CMB}\12 - Bahia Trance Blues.wav

Pre-gap length 0:00:02.00

Peak level 97.5 %
Track quality 100.0 %
Test CRC 00CFB34F
Copy CRC 00CFB34F
Track not present in AccurateRip database
Copy OK

Track 13

Filename C:\FLAC\Chuck Bernstein - Delta Berimbau Blues (2008) [FLAC] {CMB}\13 - Free To Grind.wav

Pre-gap length 0:00:02.00

Peak level 99.9 %
Track quality 100.0 %
Test CRC 33C10DA7
Copy CRC 33C10DA7
Track not present in AccurateRip database
Copy OK

Track 14

Filename C:\FLAC\Chuck Bernstein - Delta Berimbau Blues (2008) [FLAC] {CMB}\14 - Contenda.wav

Pre-gap length 0:00:03.00

Peak level 99.9 %
Track quality 100.0 %
Test CRC F0A40778
Copy CRC F0A40778
Track not present in AccurateRip database
Copy OK

Track 15

Filename C:\FLAC\Chuck Bernstein - Delta Berimbau Blues (2008) [FLAC] {CMB}\15 - Kelly Blues.wav

Pre-gap length 0:00:03.49

Peak level 99.9 %
Track quality 100.0 %
Test CRC 746C756E
Copy CRC 746C756E
Track not present in AccurateRip database
Copy OK

Track 16

Filename C:\FLAC\Chuck Bernstein - Delta Berimbau Blues (2008) [FLAC] {CMB}\16 - Flight Of The Golden Dragon.wav

Pre-gap length 0:00:02.00

Peak level 99.9 %
Track quality 100.0 %
Test CRC 9967E6DC
Copy CRC 9967E6DC
Track not present in AccurateRip database
Copy OK


None of the tracks are present in the AccurateRip database

No errors occurred

End of status report


Chuck Bernstein - Delta Berimbau Blues (2008) {CMB} **[RE-UP]**