Tags
Language
Tags

Chicago - Chicago XIV (1980) {2003 Rhino} **[RE-UP]**

Posted By: TestTickles
Chicago - Chicago XIV (1980) {2003 Rhino} **[RE-UP]**

Chicago - Chicago XIV (1980) {2003 Rhino}
EAC Rip | FLAC with CUE and log | scans | 411 mb
MP3 CBR 320kbps | RAR | 200 mb
Genre: pop, rock, pop rock

Chicago XIV is the 1980 album by American jazz rock band Chicago. This was their last release for Columbia Records before getting the boot and becoming one of the biggest yacht rock bands of the 20th century. This is the 2003 pressing released by Rhino with three songs not on the original album.
This was an album that was a huge flop for one of the biggest bands of the 1970's, and they fell on their collective asses as the 1980's began. They could have stopped, and some say considering the albums they released afterwards, they should have. Chicago XIV would be their last album with Columbia, and looking back, it was a very solid effort that should have received more respect than it did.

Chicago - Chicago XIV (1980) {2003 Rhino} **[RE-UP]**

01. Manipulation
02. Upon Arrival
03. Song For You
04. Where Did The Lovin' Go
05. Birthday Boy
06. Hold On
07. Overnight Cafe
08. Thunder And Lightning
09. I'd Rather Be Rich
10. The American Dream

BONUS SELECTIONS:
11. Doin' Business
12. Live It Up (Previously Unissued)
13. Soldier Of Fortune (Previously Unissued)

Robert Lamm-vocals, keyboards
Peter Cetera-vocals, bass
James Pankow-trombone
Walter Parazaider-saxophone
Lee Loughnane-trumpet
Danny Seraphine-drums
Laudir de Oliveira-percussion

Chris Pinnick-guitar
David "Hawk" Wolinski-keyboards
Ian Underwood-keyboards
Mark Goldenberg-guitar

Produced by Tom Dowd
Engineered by Michael Carnevale
Assistant engineers: Bill Freesh, Karat Faye & Ricky Delena

Chicago - Chicago XIV (1980) {2003 Rhino} **[RE-UP]**


Exact Audio Copy V0.99 prebeta 4 from 23. January 2008

EAC extraction logfile from 16. September 2008, 18:30

Chicago / Chicago XIV

Used drive : TSSTcorpDVD+-RW TS-H653B Adapter: 2 ID: 0

Read mode : Secure
Utilize accurate stream : Yes
Defeat audio cache : Yes
Make use of C2 pointers : No

Read offset correction : 6
Overread into Lead-In and Lead-Out : No
Fill up missing offset samples with silence : Yes
Delete leading and trailing silent blocks : No
Null samples used in CRC calculations : Yes
Used interface : Native Win32 interface for Win NT & 2000
Gap handling : Appended to previous track

Used output format : Internal WAV Routines
Sample format : 44.100 Hz; 16 Bit; Stereo


TOC of the extracted CD

Track | Start | Length | Start sector | End sector
––––––––––––––––––––––––––––-
1 | 0:00.00 | 3:46.25 | 0 | 16974
2 | 3:46.25 | 3:49.60 | 16975 | 34209
3 | 7:36.10 | 3:43.30 | 34210 | 50964
4 | 11:19.40 | 4:07.00 | 50965 | 69489
5 | 15:26.40 | 4:55.25 | 69490 | 91639
6 | 20:21.65 | 4:14.72 | 91640 | 110761
7 | 24:36.62 | 4:21.00 | 110762 | 130336
8 | 28:57.62 | 3:33.68 | 130337 | 146379
9 | 32:31.55 | 3:08.00 | 146380 | 160479
10 | 35:39.55 | 3:23.20 | 160480 | 175724
11 | 39:03.00 | 3:31.45 | 175725 | 191594
12 | 42:34.45 | 3:23.30 | 191595 | 206849
13 | 45:58.00 | 3:50.45 | 206850 | 224144


Track 1

Filename C:\FLAC\Chicago - Chicago XIV (1980) [FLAC] {2003 Rhino}\01 - Manipulation.wav

Pre-gap length 0:00:02.00

Peak level 98.8 %
Track quality 100.0 %
Test CRC 77E3E6F5
Copy CRC 77E3E6F5
Accurately ripped (confidence 7) [693C81F7]
Copy OK

Track 2

Filename C:\FLAC\Chicago - Chicago XIV (1980) [FLAC] {2003 Rhino}\02 - Upon Arrival.wav

Pre-gap length 0:00:01.50

Peak level 98.8 %
Track quality 99.9 %
Test CRC C914C49B
Copy CRC C914C49B
Accurately ripped (confidence 7) [79A24472]
Copy OK

Track 3

Filename C:\FLAC\Chicago - Chicago XIV (1980) [FLAC] {2003 Rhino}\03 - Song For You.wav

Pre-gap length 0:00:01.73

Peak level 98.8 %
Track quality 100.0 %
Test CRC CB760AA2
Copy CRC CB760AA2
Accurately ripped (confidence 7) [3ACECD20]
Copy OK

Track 4

Filename C:\FLAC\Chicago - Chicago XIV (1980) [FLAC] {2003 Rhino}\04 - Where Did The Lovin' Go.wav

Pre-gap length 0:00:02.10

Peak level 98.8 %
Track quality 100.0 %
Test CRC 54B354B9
Copy CRC 54B354B9
Accurately ripped (confidence 7) [7C739127]
Copy OK

Track 5

Filename C:\FLAC\Chicago - Chicago XIV (1980) [FLAC] {2003 Rhino}\05 - Birthday Boy.wav

Pre-gap length 0:00:01.33

Peak level 98.8 %
Track quality 100.0 %
Test CRC 03F84AD3
Copy CRC 03F84AD3
Accurately ripped (confidence 7) [BE41498C]
Copy OK

Track 6

Filename C:\FLAC\Chicago - Chicago XIV (1980) [FLAC] {2003 Rhino}\06 - Hold On.wav

Peak level 98.8 %
Track quality 100.0 %
Test CRC 5FEE97D5
Copy CRC 5FEE97D5
Accurately ripped (confidence 7) [64C2D02A]
Copy OK

Track 7

Filename C:\FLAC\Chicago - Chicago XIV (1980) [FLAC] {2003 Rhino}\07 - Overnight Cafe.wav

Peak level 98.8 %
Track quality 99.9 %
Test CRC 6608E0DD
Copy CRC 6608E0DD
Accurately ripped (confidence 7) [3A6E7E71]
Copy OK

Track 8

Filename C:\FLAC\Chicago - Chicago XIV (1980) [FLAC] {2003 Rhino}\08 - Thunder And Lightning.wav

Pre-gap length 0:00:02.06

Peak level 98.8 %
Track quality 100.0 %
Test CRC DF9D5F1B
Copy CRC DF9D5F1B
Accurately ripped (confidence 7) [E609E24F]
Copy OK

Track 9

Filename C:\FLAC\Chicago - Chicago XIV (1980) [FLAC] {2003 Rhino}\09 - I'd Rather Be Rich.wav

Pre-gap length 0:00:01.70

Peak level 98.8 %
Track quality 100.0 %
Test CRC 072A57FE
Copy CRC 072A57FE
Accurately ripped (confidence 7) [D3162B1B]
Copy OK

Track 10

Filename C:\FLAC\Chicago - Chicago XIV (1980) [FLAC] {2003 Rhino}\10 - The American Dream.wav

Peak level 98.8 %
Track quality 100.0 %
Test CRC 41D18C04
Copy CRC 41D18C04
Accurately ripped (confidence 7) [1F50385A]
Copy OK

Track 11

Filename C:\FLAC\Chicago - Chicago XIV (1980) [FLAC] {2003 Rhino}\11 - Doin' Business.wav

Pre-gap length 0:00:04.57

Peak level 98.8 %
Track quality 100.0 %
Test CRC 98C0461E
Copy CRC 98C0461E
Accurately ripped (confidence 7) [67DA58F0]
Copy OK

Track 12

Filename C:\FLAC\Chicago - Chicago XIV (1980) [FLAC] {2003 Rhino}\12 - Live It Up (Previously Unissued).wav

Pre-gap length 0:00:01.26

Peak level 98.8 %
Track quality 100.0 %
Test CRC 72606EED
Copy CRC 72606EED
Accurately ripped (confidence 7) [A317DA9A]
Copy OK

Track 13

Filename C:\FLAC\Chicago - Chicago XIV (1980) [FLAC] {2003 Rhino}\13 - Soldier Of Fortune (Previously Unissued).wav

Pre-gap length 0:00:01.53

Peak level 98.8 %
Track quality 100.0 %
Test CRC 11D9AD61
Copy CRC 11D9AD61
Accurately ripped (confidence 7) [20ED590B]
Copy OK


All tracks accurately ripped

No errors occurred

End of status report


Chicago - Chicago XIV (1980) {2003 Rhino} **[RE-UP]**