Tags
Language
Tags
November 2022
Su Mo Tu We Th Fr Sa
30 31 1 2 3 4 5
6 7 8 9 10 11 12
13 14 15 16 17 18 19
20 21 22 23 24 25 26
27 28 29 30 1 2 3

Cab Calloway and His Orchestra - 1938-1939 (1991)

Posted By: gribovar
Cab Calloway and His Orchestra - 1938-1939 (1991)

Cab Calloway and His Orchestra - 1938-1939 (1991)
EAC Rip | APE (image+.cue+log) - 205 MB | MP3 CBR 320 kbps (LAME 3.93) - 161 MB | Covers (8 MB) included
Genre: Jazz, Swing | RAR 3% Rec. | Label: Classics Records (CLASSICS 576)

The seventh of the Classics label's 12 Cab Calloway CDs traces his progress during an 11-month period through 24 recordings. The band's main soloists at the time included trumpeters Shad Collins and Irving Randolph, trombonists Claude Jones and Keg Johnson and especially tenor great Chu Berry (the band gets four instrumentals on this set). Singer June Richmond has a couple of vocals but obviously Cab Calloway is the main reason that the orchestra was working so steadily. With such songs as "Shout Shout, Shout," "Do You Wanna Jump Children" and "F.D.R. Jones" among the more memorable tracks, this CD (along with the others in the valuable series) is well worth picking up.
Tracklist:
01. Skrontch
02. We're Breakin' up a Lovely Affair
03. Peck-A-Doodle-Do
04. At the Clambake Carnival
05. Hoy-Hoy
06. Miss Hallelujah Brown
07. Congo-Conga
08. Boogie Woogie
09. There's a Sunny Side to Everything
10. Shout, Shout, Shout
11. Mister Paganini, Swing for Minnie
12. Jive
13. Do You Wanna Jump, Children?
14. I'm Madly in Love With You
15. April in My Heart
16. Blue Interlude
17. F.D.R. Jones
18. Deep in a Dream
19. Tee-Um, Tee-Um, Tee-I, Tahiti
20. Angels With Dirty Faces
21. Long, Long Ago
22. Afraid of Love
23. Ratamacue
24. Ad-De-Dey

Total time: 01:04:46

EAC extraction logfile from 20. April 2007, 21:31 for CD
Cab Calloway / Cab Calloway and his Orchestra 1938-1939

Used drive : LITE-ON CD-ROM LTN-527T Adapter: 1 ID: 1
Read mode : Secure with NO C2, accurate stream, disable cache
Read offset correction : 12
Overread into Lead-In and Lead-Out : No

Used output format : C:\Program Files\Monkey's Audio\MAC.exe (Monkey's Audio Lossless Encoder)
High Lossless Compression

Other options :
Fill up missing offset samples with silence : Yes
Delete leading and trailing silent blocks : No
Installed external ASPI interface


Range status and errors
Selected range
Filename F:\Win-Rar\Cab Calloway - Classics 1938-1939 [APE Full Scans]\Cab Calloway - Cab Calloway and his Orchestra 1938-1939.wav.wav

Peak level 93.8 %
Range quality 99.9 %
CRC 6135E1D4
Copy OK

No errors occured

End of status report

[CUETools log; Date: 16.05.2018 22:02:56; Version: 2.1.4]
Pregap length 00:00:33.
[CTDB TOCID: EAI8HKruSwYYvRKEPvHVjCVFszg-] found.
Track | CTDB Status
1 | (2/2) Accurately ripped
2 | (2/2) Accurately ripped
3 | (2/2) Accurately ripped
4 | (2/2) Accurately ripped
5 | (2/2) Accurately ripped
6 | (2/2) Accurately ripped
7 | (2/2) Accurately ripped
8 | (2/2) Accurately ripped
9 | (2/2) Accurately ripped
10 | (2/2) Accurately ripped
11 | (2/2) Accurately ripped
12 | (2/2) Accurately ripped
13 | (2/2) Accurately ripped
14 | (2/2) Accurately ripped
15 | (2/2) Accurately ripped
16 | (2/2) Accurately ripped
17 | (2/2) Accurately ripped
18 | (2/2) Accurately ripped
19 | (2/2) Accurately ripped
20 | (2/2) Accurately ripped
21 | (2/2) Accurately ripped
22 | (2/2) Accurately ripped
23 | (2/2) Accurately ripped
24 | (2/2) Accurately ripped
[AccurateRip ID: 00387f25-03ced5b8-890f2e18] found.
Track [ CRC | V2 ] Status
01 [51e891f4|595138e7] (2+3/7) Accurately ripped
02 [e5aa5213|c1ffe5a3] (2+3/7) Accurately ripped
03 [6ca5a0f6|3b14d5fb] (2+3/7) Accurately ripped
04 [19895eea|94f8ebd9] (2+3/7) Accurately ripped
05 [261817f5|2ea10d2f] (2+3/7) Accurately ripped
06 [784bfa5b|9aea5808] (2+3/7) Accurately ripped
07 [f9d73568|8530cd20] (2+3/7) Accurately ripped
08 [24db9983|14eb222a] (2+3/7) Accurately ripped
09 [01c21176|195170b8] (2+3/7) Accurately ripped
10 [950e653b|b40b2f09] (2+3/7) Accurately ripped
11 [74d803f3|94db9cab] (2+3/7) Accurately ripped
12 [707460e4|fc2bef65] (2+3/7) Accurately ripped
13 [85cdba10|c404d1a0] (2+3/7) Accurately ripped
14 [5bf96db7|d0de3f5d] (2+3/7) Accurately ripped
15 [de2b34c9|d95a26ed] (2+3/7) Accurately ripped
16 [451f0cb8|be1957dc] (2+3/7) Accurately ripped
17 [24322d48|d6b4a330] (2+3/7) Accurately ripped
18 [7d6f2918|53cf5686] (2+3/5) Accurately ripped
19 [2b08cd0a|90e150ab] (2+3/7) Accurately ripped
20 [92f8e35f|d5e5fad0] (2+3/7) Accurately ripped
21 [1bf1941e|c4e08194] (2+3/7) Accurately ripped
22 [295b53e4|2e46e41e] (2+3/7) Accurately ripped
23 [36dca537|29d07de9] (2+3/7) Accurately ripped
24 [f3b5b712|970ba97c] (2+3/7) Accurately ripped
Offsetted by 415:
01 [ef213188] (2/7) Accurately ripped
02 [ab6522f7] (2/7) Accurately ripped
03 [e04f0d39] (2/7) Accurately ripped
04 [6887c42d] (2/7) Accurately ripped
05 [fc31e63b] (2/7) Accurately ripped
06 [d3348f11] (2/7) Accurately ripped
07 [5f619a81] (2/7) Accurately ripped
08 [01a30e24] (2/7) Accurately ripped
09 [9d0255d4] (2/7) Accurately ripped
10 [0f89022e] (2/7) Accurately ripped
11 [285e1a39] (2/7) Accurately ripped
12 [56846aff] (2/7) Accurately ripped
13 [2fadd519] (2/7) Accurately ripped
14 [9e848e29] (2/7) Accurately ripped
15 [aed78d76] (2/7) Accurately ripped
16 [f7b133c0] (2/7) Accurately ripped
17 [e2320287] (2/7) Accurately ripped
18 [b9b36edb] (0/5) No match (V2 was not tested)
19 [3f19a750] (2/7) Accurately ripped
20 [362bd1e4] (2/7) Accurately ripped
21 [ce032470] (2/7) Accurately ripped
22 [ec5386cc] (2/7) Accurately ripped
23 [9ced8769] (2/7) Accurately ripped
24 [ba2ef709] (2/7) Accurately ripped

Track Peak [ CRC32 ] [W/O NULL] [ LOG ]
– 93,8 [6135E1D4] [AB24B62C] CRC32
01 93,4 [D2C6F082] [FA879A49]
02 88,4 [FFD19DF8] [7C0B0C35]
03 69,7 [F90CCFE6] [7139EDA6]
04 85,9 [87173DE8] [6AD1617E]
05 82,0 [90970118] [72027F41]
06 91,6 [ABF760CD] [6269FDB2]
07 92,5 [F242901F] [B58454F0]
08 88,0 [323AD7DF] [FFE555C3]
09 74,0 [75BC364A] [6042087E]
10 75,2 [599FCE92] [DEDC41D9]
11 70,1 [CFB800C0] [00B4F957]
12 75,4 [DCC73EDB] [CFD4BBC1]
13 71,1 [E49346D2] [E3D7F4BF]
14 71,9 [C25A0BEF] [05A8F50E]
15 85,1 [EDA3301A] [BDB73AE9]
16 93,8 [F2356929] [8F91DE83]
17 71,1 [18AC8B60] [391D47F9]
18 65,6 [ED7DA6CB] [C407537E]
19 93,7 [3DE5AB5E] [3E9BAAFA]
20 93,8 [202B4B52] [CE56B52D]
21 76,9 [99F84E3F] [776AB239]
22 81,5 [10F7210A] [0B15CFBC]
23 77,5 [165CD682] [C16078A5]
24 87,4 [49A50175] [E05A8CE8]

Thanks to Mazeppa

See also: