Subcategories

Capilla Peñaflorida, Ministriles de Marsias, Josep Cabré - Juan de Anchieta: Missa Sine Nomine, Salve Regina (2003)

Posted By: tirexiss
Capilla Peñaflorida, Ministriles de Marsias, Josep Cabré - Juan de Anchieta: Missa Sine Nomine, Salve Regina (2003)

Capilla Peñaflorida, Ministriles de Marsias, Josep Cabré - Juan de Anchieta: Missa Sine Nomine, Salve Regina (2003)
EAC | FLAC (image+.cue, log) | Covers Included | 01:07:14 | 289 MB
Genre: Classical, Choral | Label: Naxos | Catalog: 8.555772

This superb disc of music by one of Spain's most talented early 16th century composers is exactly the sort of boost that the less well-known repertoire needs in its search for a place in today's CD collection. It is in every way a model of what a recording of Renaissance polyphony ought to be… The all male vocal ensemble sings with enormous conviction as well as firm control of rhythm and phrasing. Combining the voices with energetically played sackbuts produces a rich and dark-hued sound that feels authentically Spanish, and does full justice to this very fine music. – Elizabeth Roche

Capilla Peñaflorida, Ministriles de Marsias, Josep Cabré - Juan de Anchieta: Missa Sine Nomine, Salve Regina (2003)

Track List:

Juan de Anchieta (Antxieta) (1462-1523)

01. Anonymous: L'homme armé
02. Anonymous, Juan de Anchieta: Introitus: Salve Sancta Parens
03. Juan de Anchieta: Missa Sine Nomine - Kyrie eleison - Christe eleison - Kyrie eleison
04. Josquin Desprez, Francisco Fernandes Palero: Kyrie I
05. Juan de Anchieta: Missa Sine Nomine - Gloria in excelsis Deo
06. Anonymous: Graduale: Benedicta et venerabilis es (Gregorian chant)
07. Anonymous: Reyna muy esclareçida
08. Juan de Anchieta: Missa Sine Nomine - Credo
09. Francisco de Peñalosa - Sancta mater istud agas (instrumental)
10. Anonymous: Offertorium: Ave Maria, gratia plena (Gregorian chant)
11. Juan de Anchieta: Ave Sanctissima Maria
12. Juan de Anchieta: Missa Sine Nomine - Sanctus - Benedictus
13. Urreda, Antonio de Cabezon: Hymn: Pange lingua
14. Juan de Anchieta: Virgo et Mater
15. Juan de Anchieta: Missa Sine Nomine - Agnus Dei
16. Anonymous: Communio: Beata viscera (Gregorian chant)
17. Juan de Anchieta: Salve Regina (Antiphon)

Performers:
Capilla Peñaflorida
Loreto Fernández Imaz, organ
Ministriles de Marsias
Josep Cabré

Exact Audio Copy V1.1 from 23. June 2015

EAC extraction logfile from 22. April 2017, 17:41

Capilla Peñaflorida, Ministriles de Marsias, Josep Cabre / Anchieta - Missa Sine Nomine

Used drive : TSSTcorpCD/DVDW SH-S182M Adapter: 1 ID: 1

Read mode : Secure
Utilize accurate stream : Yes
Defeat audio cache : Yes
Make use of C2 pointers : No

Read offset correction : 6
Overread into Lead-In and Lead-Out : No
Fill up missing offset samples with silence : Yes
Delete leading and trailing silent blocks : No
Null samples used in CRC calculations : Yes
Used interface : Native Win32 interface for Win NT & 2000

Used output format : User Defined Encoder
Selected bitrate : 128 kBit/s
Quality : High
Add ID3 tag : No
Command line compressor : C:\Program Files (x86)\Exact Audio Copy\Flac\flac.exe
Additional command line options : -V -8 -T "Date=%year%" -T "Genre=%genre%" %source%


TOC of the extracted CD

Track | Start | Length | Start sector | End sector
––––––––––––––––––––––––––––-
1 | 0:00.00 | 1:09.67 | 0 | 5241
2 | 1:09.67 | 4:41.53 | 5242 | 26369
3 | 5:51.45 | 4:18.37 | 26370 | 45756
4 | 10:10.07 | 1:28.33 | 45757 | 52389
5 | 11:38.40 | 6:08.15 | 52390 | 80004
6 | 17:46.55 | 2:44.22 | 80005 | 92326
7 | 20:31.02 | 2:42.03 | 92327 | 104479
8 | 23:13.05 | 9:27.65 | 104480 | 147069
9 | 32:40.70 | 2:43.47 | 147070 | 159341
10 | 35:24.42 | 2:02.28 | 159342 | 168519
11 | 37:26.70 | 3:28.20 | 168520 | 184139
12 | 40:55.15 | 6:05.10 | 184140 | 211524
13 | 47:00.25 | 2:51.27 | 211525 | 224376
14 | 49:51.52 | 3:03.45 | 224377 | 238146
15 | 52:55.22 | 3:54.38 | 238147 | 255734
16 | 56:49.60 | 0:56.07 | 255735 | 259941
17 | 57:45.67 | 9:35.08 | 259942 | 303074


Range status and errors

Selected range

Filename C:\temp\Anchieta - Missa Sine Nomine\Anchieta - Missa Sine Nomine.wav

Peak level 99.9 %
Extraction speed 8.3 X
Range quality 100.0 %
Test CRC F1D15997
Copy CRC F1D15997
Copy OK

No errors occurred


AccurateRip summary

Track 1 accurately ripped (confidence 3) [F7EA8108] (AR v1)
Track 2 accurately ripped (confidence 3) [8C0E1B7E] (AR v1)
Track 3 accurately ripped (confidence 3) [E85D3C0B] (AR v1)
Track 4 accurately ripped (confidence 3) [1A6E97BC] (AR v1)
Track 5 accurately ripped (confidence 3) [E49414E9] (AR v1)
Track 6 accurately ripped (confidence 3) [27D33AB4] (AR v1)
Track 7 accurately ripped (confidence 3) [63D07B34] (AR v1)
Track 8 accurately ripped (confidence 3) [1A251037] (AR v1)
Track 9 accurately ripped (confidence 3) [88E4F8F4] (AR v1)
Track 10 accurately ripped (confidence 3) [57A573D2] (AR v1)
Track 11 accurately ripped (confidence 3) [E768B43D] (AR v1)
Track 12 accurately ripped (confidence 3) [7FA2CCC1] (AR v1)
Track 13 accurately ripped (confidence 3) [198E17F5] (AR v1)
Track 14 accurately ripped (confidence 3) [F9883C26] (AR v1)
Track 15 accurately ripped (confidence 3) [3369B776] (AR v1)
Track 16 accurately ripped (confidence 3) [9AD5F939] (AR v1)
Track 17 accurately ripped (confidence 3) [99E8BA94] (AR v1)

All tracks accurately ripped

End of status report

==== Log checksum 6821B787AB1E514BFB3177B53425A21B3788EF0160144ED24400DCD70340358E ====

[CUETools log; Date: 05.08.2017 10:13:04; Version: 2.1.5]
[CTDB TOCID: Gie9BGBLNMDx_E79SzcmnTLDwBA-] found.
Track | CTDB Status
1 | ( 9/10) Accurately ripped
2 | ( 9/10) Accurately ripped
3 | ( 9/10) Accurately ripped
4 | ( 9/10) Accurately ripped
5 | ( 9/10) Accurately ripped
6 | ( 9/10) Accurately ripped
7 | ( 9/10) Accurately ripped
8 | ( 9/10) Accurately ripped
9 | ( 9/10) Accurately ripped
10 | ( 9/10) Accurately ripped
11 | ( 9/10) Accurately ripped
12 | ( 9/10) Accurately ripped
13 | ( 9/10) Accurately ripped
14 | ( 9/10) Accurately ripped
15 | ( 9/10) Accurately ripped
16 | ( 9/10) Accurately ripped
17 | ( 9/10) Accurately ripped
[AccurateRip ID: 002709ec-01f61d76-e20fc911] found.
Track [ CRC | V2 ] Status
01 [f7ea8108|bb815f1d] (3+0/3) Accurately ripped
02 [8c0e1b7e|0660d341] (3+0/3) Accurately ripped
03 [e85d3c0b|32a1a7ba] (3+0/3) Accurately ripped
04 [1a6e97bc|cd1f697c] (3+0/3) Accurately ripped
05 [e49414e9|8e649bb8] (3+0/3) Accurately ripped
06 [27d33ab4|36a6190b] (3+0/3) Accurately ripped
07 [63d07b34|8444b101] (3+0/3) Accurately ripped
08 [1a251037|e5cf05c5] (3+0/3) Accurately ripped
09 [88e4f8f4|5b293832] (3+0/3) Accurately ripped
10 [57a573d2|ce92c044] (3+0/3) Accurately ripped
11 [e768b43d|13ebfe5e] (3+0/3) Accurately ripped
12 [7fa2ccc1|014c42ce] (3+0/3) Accurately ripped
13 [198e17f5|dd7c6827] (3+0/3) Accurately ripped
14 [f9883c26|0e7ef00d] (3+0/3) Accurately ripped
15 [3369b776|2e9684ad] (3+0/3) Accurately ripped
16 [9ad5f939|57c8d253] (3+0/3) Accurately ripped
17 [99e8ba94|4d2520c6] (3+0/3) Accurately ripped

Track Peak [ CRC32 ] [W/O NULL] [ LOG ]
– 99,9 [F1D15997] [980CCF6B] CRC32
01 99,5 [F792EABF] [7FE0794E]
02 74,7 [90CB33BF] [C0875004]
03 91,3 [C9DE3239] [8467E460]
04 24,7 [70A02B5C] [3042DC2E]
05 99,2 [8CBD9689] [46A90D17]
06 26,2 [34DF0416] [81D5DE20]
07 99,9 [EAB9C306] [FDCA7245]
08 97,2 [4F3A18C6] [349AD2A5]
09 98,9 [F88FB1C5] [C9934C53]
10 13,1 [811863F9] [28993E4E]
11 36,2 [D9F2242F] [C06C2855]
12 99,5 [2EBB2B7D] [1DB1A38D]
13 24,0 [5831D0DE] [7BAB058B]
14 53,2 [7132D7BF] [CEB23CB1]
15 38,4 [9E6CAF81] [29062908]
16 19,0 [1BF762F5] [067BC6DF]
17 67,7 [6131AE47] [FC411C5C]

Thanks to the Original ripper A-Z!

Download: