Subcategories
Tags
Language
Tags

Carin van Heerden, L'Orfeo Barockorchester - Telemann: 3 Overture Suites (2020)

Posted By: ArlegZ
Carin van Heerden, L'Orfeo Barockorchester - Telemann: 3 Overture Suites (2020)

Carin van Heerden, L'Orfeo Barockorchester - Telemann: 3 Overture Suites (2020)
EAC | FLAC | Image (Cue & Log) ~ 361 Mb | Total time: 66:11 | Scans included
Classical | Label: CPO | # 555 389-2 | Recorded: 2020

The work group formed by Telemanns overture suites is regarded as exemplary and even today offers a wealth of discoveries and the three works presented here in album recording premieres certainly answer this description. It is difficult to determine the chronological order of Telemanns extant overture suites because the composer incorporated very different influences into them, not only from French music since the invention of the form by Jean-Baptiste Lully but also from the Lullists active in Germany such as Johann Sigismund Kusser, Philipp Heinrich Erlebach, and Johann Fischer. And for Telemanns pronounced tendency to mix existing formal, stylistic, and generic traditions, the overture suite formed an absolutely ideal foil. Here we can find diverse characters, formal combinations, and stylistic interconnections in great supply. The great imagination and spirit at work here are also shown in the plentiful stores of surprising ideas that shine like flashes of brainstorm lightning in various passages.

Performer:
Carin van Heerden, Oboe und Blockflöte
L'Orfeo Barockorchester

Track List:
Overture TWV 55:G1 in G major
01. Ouverture
02. Air: Doucement
03. Prélude: Vistement
04. Air: Lentement
05. Air en Meniuet – Menuet II
06. Air en Sarabande
07. Entrée
08. Angloise
Overture à 6 TWV 55:B13 in B flat major
09. Ouverture
10. Gigue
11. Gavotte
12. Menuet
13. Plainte
14. Bourrée
15. Affettuoso e molto adagio
16. Passepied alternativement
Overture TWV 55:G5 in G major
17. Ouverture
18. Les Augures
19. Rondeaux
20. Entrée
21. La Joye
22. Sarabande
23. Gigue
24. Gavotte en Rondeau
25. Plainte
26. Menuet


Exact Audio Copy V1.3 from 2. September 2016

EAC extraction logfile from 27. February 2021, 21:16

L'Orfeo Barockorchester, Carin van Heerden / Telemann - 3 Overture Suites

Used drive : HL-DT-STDVDRAM GH24NS95 Adapter: 1 ID: 0

Read mode : Secure
Utilize accurate stream : Yes
Defeat audio cache : Yes
Make use of C2 pointers : No

Read offset correction : 6
Overread into Lead-In and Lead-Out : No
Fill up missing offset samples with silence : Yes
Delete leading and trailing silent blocks : No
Null samples used in CRC calculations : Yes
Used interface : Native Win32 interface for Win NT & 2000

Used output format : User Defined Encoder
Selected bitrate : 768 kBit/s
Quality : High
Add ID3 tag : No
Command line compressor : C:\Program Files\Exact Audio Copy\FLAC\FLAC.EXE
Additional command line options : -6 -V -T "ARTIST=%artist%" -T "TITLE=%title%" -T "ALBUM=%albumtitle%" -T "DATE=%year%" -T "TRACKNUMBER=%tracknr%" -T "GENRE=%genre%" -T "COMMENT=%comment%" -T "BAND=%albuminterpret%" -T "ALBUMARTIST=%albuminterpret%" -T "COMPOSER=%composer%" %haslyrics%–tag-from-file=LYRICS="%lyricsfile%"%haslyrics% -T "DISCNUMBER=%cdnumber%" -T "TOTALDISCS=%totalcds%" -T "TOTALTRACKS=%numtracks%" %hascover%–picture="%coverfile%"%hascover% %source% -o %dest%


TOC of the extracted CD

Track | Start | Length | Start sector | End sector
––––––––––––––––––––––––––––-
1 | 0:00.00 | 4:07.38 | 0 | 18562
2 | 4:07.38 | 1:39.08 | 18563 | 25995
3 | 5:46.46 | 0:48.18 | 25996 | 29613
4 | 6:34.64 | 1:49.12 | 29614 | 37800
5 | 8:24.01 | 4:16.03 | 37801 | 57003
6 | 12:40.04 | 4:05.57 | 57004 | 75435
7 | 16:45.61 | 1:24.18 | 75436 | 81753
8 | 18:10.04 | 1:33.37 | 81754 | 88765
9 | 19:43.41 | 3:59.47 | 88766 | 106737
10 | 23:43.13 | 0:58.49 | 106738 | 111136
11 | 24:41.62 | 1:22.16 | 111137 | 117302
12 | 26:04.03 | 2:17.21 | 117303 | 127598
13 | 28:21.24 | 4:01.09 | 127599 | 145682
14 | 32:22.33 | 0:48.66 | 145683 | 149348
15 | 33:11.24 | 5:45.04 | 149349 | 175227
16 | 38:56.28 | 2:27.66 | 175228 | 186318
17 | 41:24.19 | 3:55.31 | 186319 | 203974
18 | 45:19.50 | 2:37.39 | 203975 | 215788
19 | 47:57.14 | 2:46.39 | 215789 | 228277
20 | 50:43.53 | 2:25.07 | 228278 | 239159
21 | 53:08.60 | 1:02.71 | 239160 | 243880
22 | 54:11.56 | 2:03.18 | 243881 | 253123
23 | 56:14.74 | 1:57.04 | 253124 | 261902
24 | 58:12.03 | 1:02.64 | 261903 | 266616
25 | 59:14.67 | 3:25.64 | 266617 | 282055
26 | 62:40.56 | 3:29.07 | 282056 | 297737


Range status and errors

Selected range

Filename C:\Program Files\Exact Audio Copy\L'Orfeo Barockorchester - Telemann - 3 Overture Suites.wav

Peak level 97.3 %
Extraction speed 2.0 X
Range quality 100.0 %
Test CRC 9FC93071
Copy CRC 9FC93071
Copy OK

No errors occurred

End of status report

Carin van Heerden, L'Orfeo Barockorchester - Telemann: 3 Overture Suites (2020)

Thanks to the original releaser