Tags
Language
Tags

Carlo Rizzi, The Metropolitan Opera Orchestra, Sondra Radvanovsky, Joyce DiDonato - Bellini: Norma (2018) [BDRip]

Posted By: Vilboa
Carlo Rizzi, The Metropolitan Opera Orchestra, Sondra Radvanovsky, Joyce DiDonato - Bellini: Norma (2018) [BDRip]

Carlo Rizzi, The Metropolitan Opera Orchestra, Sondra Radvanovsky, Joyce DiDonato - Bellini: Norma (2018) [BDRip]
BluRay-rip | AVC | MKV 1920x1080 / 6215 kbps / 29,970 fps | 169 min | 9,19 Gb
Audio: Italiano / DTS / 6ch / 48.0 KHz / 24 bits
Classical | Erato | Sub: English, French, German, Spanish, Italian

To open the Met’s 2017–18 season, powerhouse soprano Sondra Radvanovsky tackled one of opera’s most fearsome roles, the title druid priestess of Bellini’s Norma, who wrestles with love and betrayal before making the ultimate sacrifice on a funeral pyre. Mezzo-soprano Joyce DiDonato sang Norma’s friend and rival, Adalgisa, in Sir David McVicar’s evocative production.

Cast:
Norma - Sondra Radvanovsky
Adalgisa - Joyce DiDonato
Pollione - Joseph Calleja
Oroveso - Matthew Rose
Clotilde - Michelle Bradley
Flavio - Adam Diegel
The Metropolitan Opera Orchestra and Chorus
Conductor - Carlo Rizzi


General
Unique ID : 225715103313265221819777636719094970170 (0xA9CF25CB8C50A7158158F4BC9C00B73A)
Complete name : C:\Norma.mkv
Format : Matroska
Format version : Version 2
File size : 9.19 GiB
Duration : 2h 49mn
Overall bit rate : 7 771 Kbps
Movie name : Norma
Encoded date : UTC 2020-05-14 09:34:33
Writing application : DVDFab 9.1.6.8
Writing library : libebml v0.7.8 + libmatroska v0.8.1

Video
ID : 1
Format : AVC
Format/Info : Advanced Video Codec
Format profile : High@L4.1
Format settings, CABAC : Yes
Format settings, ReFrames : 2 frames
Codec ID : V_MPEG4/ISO/AVC
Duration : 2h 49mn
Bit rate : 6 215 Kbps
Width : 1 920 pixels
Height : 1 080 pixels
Display aspect ratio : 16:9
Frame rate mode : Constant
Frame rate : 29.970 fps
Color space : YUV
Chroma subsampling : 4:2:0
Bit depth : 8 bits
Scan type : Progressive
Bits/(Pixel*Frame) : 0.100
Stream size : 7.23 GiB (79%)
Writing library : x264 core 142
Encoding settings : cabac=1 / ref=1 / deblock=1:-1:-1 / analyse=0x3:0 / me=hex / subme=5 / psy=0 / mixed_ref=0 / me_range=16 / chroma_me=1 / trellis=0 / 8x8dct=1 / cqm=0 / deadzone=21,11 / fast_pskip=1 / chroma_qp_offset=0 / threads=8 / lookahead_threads=2 / sliced_threads=0 / nr=0 / decimate=1 / interlaced=0 / bluray_compat=0 / constrained_intra=0 / bframes=2 / b_pyramid=0 / b_adapt=1 / b_bias=0 / direct=1 / weightb=1 / open_gop=0 / weightp=0 / keyint=24 / keyint_min=13 / scenecut=40 / intra_refresh=0 / rc=abr / mbtree=0 / bitrate=6215 / ratetol=1.0 / qcomp=0.60 / qpmin=0 / qpmax=69 / qpstep=4 / ip_ratio=1.40 / pb_ratio=1.30 / aq=1:1.00
Default : Yes
Forced : No
Color primaries : BT.709
Transfer characteristics : BT.709
Matrix coefficients : BT.709
Color range : Limited

Audio
ID : 2
Format : DTS
Format/Info : Digital Theater Systems
Mode : 16
Format settings, Endianness : Big
Codec ID : A_DTS
Duration : 2h 49mn
Bit rate mode : Constant
Bit rate : 1 509 Kbps
Channel(s) : 6 channels
Channel positions : Front: L C R, Side: L R, LFE
Sampling rate : 48.0 KHz
Bit depth : 24 bits
Compression mode : Lossy
Stream size : 1.79 GiB (19%)
Language : Italian
Default : Yes
Forced : No

Text #1
ID : 3
Format : VobSub
Codec ID : S_VOBSUB
Codec ID/Info : The same subtitle format used on DVDs
Language : English
Default : Yes
Forced : No

Text #2
ID : 4
Format : VobSub
Codec ID : S_VOBSUB
Codec ID/Info : The same subtitle format used on DVDs
Language : French
Default : No
Forced : No

Text #3
ID : 5
Format : VobSub
Codec ID : S_VOBSUB
Codec ID/Info : The same subtitle format used on DVDs
Language : German
Default : No
Forced : No

Text #4
ID : 6
Format : VobSub
Codec ID : S_VOBSUB
Codec ID/Info : The same subtitle format used on DVDs
Language : Spanish
Default : No
Forced : No

Text #5
ID : 7
Format : VobSub
Codec ID : S_VOBSUB
Codec ID/Info : The same subtitle format used on DVDs
Language : Italian
Default : No
Forced : No

Menu
00:00:00.000 : en:Chapter 01
00:00:40.874 : en:Chapter 02
00:04:34.874 : en:Chapter 03
00:10:26.092 : en:Chapter 04
00:17:49.435 : en:Chapter 05
00:23:02.114 : en:Chapter 06
00:26:03.228 : en:Chapter 07
00:30:09.908 : en:Chapter 08
00:34:28.466 : en:Chapter 09
00:42:46.564 : en:Chapter 10
00:49:02.673 : en:Chapter 11
00:55:21.851 : en:Chapter 12
01:02:13.029 : en:Chapter 13
01:07:42.324 : en:Chapter 14
01:10:45.074 : en:Chapter 15
01:14:21.457 : en:Chapter 16
01:23:57.766 : en:Chapter 17
01:26:55.543 : en:Chapter 18
01:32:33.080 : en:Chapter 19
01:36:22.777 : en:Chapter 20
01:37:05.786 : en:Chapter 21
01:41:52.639 : en:Chapter 22
01:47:20.267 : en:Chapter 23
01:49:51.918 : en:Chapter 24
01:53:55.829 : en:Chapter 25
01:59:44.076 : en:Chapter 26
02:02:19.332 : en:Chapter 27
02:05:59.218 : en:Chapter 28
02:10:13.472 : en:Chapter 29
02:14:38.403 : en:Chapter 30
02:18:14.619 : en:Chapter 31
02:22:01.846 : en:Chapter 32
02:29:53.150 : en:Chapter 33
02:33:35.206 : en:Chapter 34
02:38:33.737 : en:Chapter 35
02:40:58.281 : en:Chapter 36
02:45:31.922 : en:Chapter 37

Carlo Rizzi, The Metropolitan Opera Orchestra, Sondra Radvanovsky, Joyce DiDonato - Bellini: Norma (2018) [BDRip]