Tags
Language
Tags

Carmen Cuesta - Peace Of Mind (2001) {Skip Records}

Posted By: tiburon
Carmen Cuesta - Peace Of Mind (2001) {Skip Records}

Carmen Cuesta - Peace Of Mind (2001) {Skip Records}
EAC 1.0b3 | FLAC tracks level 8 | Cue+Log+M3U | Full Scans 300dpi | 380MB + 5% Recovery
MP3 CBR 320 Kbps | 146MB + 5% Recovery
Genre: Vocal Jazz, Bossa Nova

Carmen Cuesta - Loeb set the pace for her album "Peace Of Mind" by working together with such top studio musicians as Chuck Loeb, Will Lee, Wolfgang Haffner and Bob James. Icing on the cake for her brand of "sophisticated pop" are the solos delivered by such jazz stars as Toots Thielemans, Bill Evans and Till Bronner. Alongside a number of her own compositions in a relaxed, atmospheric vein, jewels like the heart-rendering title song "Peace Of Mind", the catchy "Paralelo" or the romantic ballad "Bells", there are two cover versions in particular that stand out on the list of tracks.
Track List
01. Paralelo 6:58
02. La Bossa De Kris 4:00
03. Endless Is Love 4:27
04. Peace Of Mind 4:22
05. Bells 5:23
06. Shape Of My Heart 5:58
07. Walk 5:45
08. Too Fast 3:40
09. Te Perdi 4:23
10. Here Comes The Sun 4:02
11. Tears Of Joy 4:45
12. Untitle Track 4:05 (Starts on 2:00)

musicians
Carmen Cuesta - vocals
Chuck Loeb - guitars, programming, keyboards, synth flute, harmonica
Bill Evans - soprano sax
Vinnie Colaiuta - drums
Will Lee - bass
Toots Thielemans - harmonica
Till Bronner - trumpet
Bob James - piano
Lou Marini - alto flute
Dave Mann - soprano sax
Tim LeFebvre - bass
Mark Egan - bass
Wolfgang Haffner - drums
David Charles - percussion
Mitchel Forman - keyboards
Mike Ricchiuti - keyboards

Produced by Carmen Cuesta and Chuck Loeb


Exact Audio Copy V1.0 beta 3 from 29. August 2011

EAC extraction logfile from 8. February 2014, 13:19

Carmen Cuesta / Peace Of Mind

Used drive : HL-DT-STDVDRAM GH20NS10 Adapter: 2 ID: 1

Read mode : Secure
Utilize accurate stream : Yes
Defeat audio cache : Yes
Make use of C2 pointers : No

Read offset correction : 667
Overread into Lead-In and Lead-Out : No
Fill up missing offset samples with silence : Yes
Delete leading and trailing silent blocks : No
Null samples used in CRC calculations : Yes
Used interface : Native Win32 interface for Win NT & 2000
Gap handling : Appended to previous track

Used output format : User Defined Encoder
Selected bitrate : 1024 kBit/s
Quality : High
Add ID3 tag : No
Command line compressor : C:\Program Files\Exact Audio Copy\Flac\flac.exe
Additional command line options : -8 -V -T "ARTIST=%artist%" -T "TITLE=%title%" -T "ALBUM=%albumtitle%" -T "DATE=%year%" -T "TRACKNUMBER=%tracknr%" -T "TOTALTRACKS=%numtracks%" -T "GENRE=%genre%" -T "ALBUMARTIST=%albumartist%" -T "ALBUM ARTIST=%albumartist%" -T "COMMENT=EAC Secure Mode, Test & Copy, AccurateRip, FLAC -8" %source%


TOC of the extracted CD

Track | Start | Length | Start sector | End sector
––––––––––––––––––––––––––––-
1 | 0:00.00 | 6:59.25 | 0 | 31449
2 | 6:59.25 | 4:00.35 | 31450 | 49484
3 | 10:59.60 | 4:28.15 | 49485 | 69599
4 | 15:28.00 | 4:22.62 | 69600 | 89311
5 | 19:50.62 | 5:23.25 | 89312 | 113561
6 | 25:14.12 | 5:59.13 | 113562 | 140499
7 | 31:13.25 | 5:45.50 | 140500 | 166424
8 | 36:59.00 | 3:40.32 | 166425 | 182956
9 | 40:39.32 | 4:23.20 | 182957 | 202701
10 | 45:02.52 | 4:03.70 | 202702 | 220996
11 | 49:06.47 | 4:44.30 | 220997 | 242326
12 | 53:51.02 | 4:05.08 | 242327 | 260709


Track 1

Filename D:\Carmen Cuesta - Peace Of Mind (2001) [FLAC]\01 - Paralelo.wav

Pre-gap length 0:00:02.00

Peak level 99.9 %
Extraction speed 5.2 X
Track quality 100.0 %
Test CRC 6E224560
Copy CRC 6E224560
Cannot be verified as accurate (confidence 9) [4DDF3E17], AccurateRip returned [3D658F65] (AR v2)
Copy OK

Track 2

Filename D:\Carmen Cuesta - Peace Of Mind (2001) [FLAC]\02 - La Bossa De Kris.wav

Pre-gap length 0:00:01.38

Peak level 99.9 %
Extraction speed 5.6 X
Track quality 100.0 %
Test CRC A6AE2A1F
Copy CRC A6AE2A1F
Cannot be verified as accurate (confidence 9) [5DC28E95], AccurateRip returned [23CC29AC] (AR v2)
Copy OK

Track 3

Filename D:\Carmen Cuesta - Peace Of Mind (2001) [FLAC]\03 - Endless Is Love.wav

Peak level 99.9 %
Extraction speed 4.7 X
Track quality 100.0 %
Test CRC 09C6F32A
Copy CRC 09C6F32A
Cannot be verified as accurate (confidence 9) [8AF98520], AccurateRip returned [28DEEB2F] (AR v2)
Copy OK

Track 4

Filename D:\Carmen Cuesta - Peace Of Mind (2001) [FLAC]\04 - Peace Of Mind.wav

Peak level 99.9 %
Extraction speed 6.4 X
Track quality 100.0 %
Test CRC 8EE63B58
Copy CRC 8EE63B58
Cannot be verified as accurate (confidence 9) [6E031F31], AccurateRip returned [310FEC21] (AR v2)
Copy OK

Track 5

Filename D:\Carmen Cuesta - Peace Of Mind (2001) [FLAC]\05 - Bells.wav

Pre-gap length 0:00:01.02

Peak level 99.9 %
Extraction speed 5.8 X
Track quality 99.9 %
Test CRC 0DC194C8
Copy CRC 0DC194C8
Cannot be verified as accurate (confidence 9) [3766F4F1], AccurateRip returned [A63EB1EB] (AR v2)
Copy OK

Track 6

Filename D:\Carmen Cuesta - Peace Of Mind (2001) [FLAC]\06 - Shape Of My Heart.wav

Pre-gap length 0:00:01.65

Peak level 99.9 %
Extraction speed 6.7 X
Track quality 99.9 %
Test CRC E5F2D22A
Copy CRC E5F2D22A
Cannot be verified as accurate (confidence 9) [B2118DFD], AccurateRip returned [D8F90D2B] (AR v2)
Copy OK

Track 7

Filename D:\Carmen Cuesta - Peace Of Mind (2001) [FLAC]\07 - Walk.wav

Peak level 99.9 %
Extraction speed 8.1 X
Track quality 100.0 %
Test CRC 6C142AEC
Copy CRC 6C142AEC
Cannot be verified as accurate (confidence 9) [BEA2DF37], AccurateRip returned [3C9C367E] (AR v2)
Copy OK

Track 8

Filename D:\Carmen Cuesta - Peace Of Mind (2001) [FLAC]\08 - Too Fast.wav

Peak level 99.9 %
Extraction speed 6.0 X
Track quality 99.9 %
Test CRC 7766402E
Copy CRC 7766402E
Cannot be verified as accurate (confidence 9) [BF6CA19D], AccurateRip returned [8D1BB18B] (AR v2)
Copy OK

Track 9

Filename D:\Carmen Cuesta - Peace Of Mind (2001) [FLAC]\09 - Te Perdi.wav

Peak level 99.9 %
Extraction speed 4.6 X
Track quality 99.9 %
Test CRC B76D4971
Copy CRC B76D4971
Cannot be verified as accurate (confidence 9) [D7233AC7], AccurateRip returned [F77CE81C] (AR v2)
Copy OK

Track 10

Filename D:\Carmen Cuesta - Peace Of Mind (2001) [FLAC]\10 - Here Comes The Sun.wav

Peak level 99.9 %
Extraction speed 6.7 X
Track quality 100.0 %
Test CRC 823A29D3
Copy CRC 823A29D3
Cannot be verified as accurate (confidence 9) [50912CFE], AccurateRip returned [4039D3B3] (AR v2)
Copy OK

Track 11

Filename D:\Carmen Cuesta - Peace Of Mind (2001) [FLAC]\11 - Tears Of Joy.wav

Pre-gap length 0:00:01.27

Peak level 99.9 %
Extraction speed 6.9 X
Track quality 100.0 %
Test CRC 92ECD067
Copy CRC 92ECD067
Cannot be verified as accurate (confidence 9) [83AD1075], AccurateRip returned [51FFBF73] (AR v2)
Copy OK

Track 12

Filename D:\Carmen Cuesta - Peace Of Mind (2001) [FLAC]\12 - Untitled Track.wav

Peak level 66.4 %
Extraction speed 5.9 X
Track quality 100.0 %
Test CRC F5E775D4
Copy CRC F5E775D4
Track not present in AccurateRip database
Copy OK


11 track(s) could not be verified as accurate
1 track(s) not present in the AccurateRip database

No tracks could be verified as accurate
You may have a different pressing from the one(s) in the database

No errors occurred

End of status report

==== Log checksum 8688B67538F1B40243A1037BB773DD64C3B4342E8E0D682ABD279B62A1A7017B ====


––––––––––––––––––––––––––––––––––––––––
Analyzed: Carmen Cuesta / Peace Of Mind
––––––––––––––––––––––––––––––––––––––––

DR Peak RMS Duration Track
––––––––––––––––––––––––––––––––––––––––
DR7 0.00 dB -8.47 dB 6:59 01-Paralelo
DR7 0.00 dB -9.15 dB 4:00 02-La Bossa De Kris
DR7 0.00 dB -9.76 dB 4:28 03-Endless Is Love
DR7 0.00 dB -9.25 dB 4:23 04-Peace Of Mind
DR9 0.00 dB -11.52 dB 5:23 05-Bells
DR8 0.00 dB -10.25 dB 5:59 06-Shape Of My Heart
DR9 0.00 dB -10.92 dB 5:46 07-Walk
DR7 0.00 dB -8.43 dB 3:40 08-Too Fast
DR8 0.00 dB -10.71 dB 4:23 09-Te Perdi
DR8 0.00 dB -9.79 dB 4:04 10-Here Comes The Sun
DR8 0.00 dB -9.83 dB 4:44 11-Tears Of Joy
DR11 -3.56 dB -18.69 dB 4:05 12-Untitled Track
––––––––––––––––––––––––––––––––––––––––

Number of tracks: 12
Official DR value: DR8

Samplerate: 44100 Hz
Channels: 2
Bits per sample: 16
Bitrate: 362 kbps
Codec: FLAC
================================================================================

Carmen Cuesta - Peace Of Mind (2001) {Skip Records}
Carmen Cuesta - Peace Of Mind (2001) {Skip Records}
Carmen Cuesta - Peace Of Mind (2001) {Skip Records}