Tags
Language
Tags

Carol Kaye - Picking Up On The E-String (1995) {Self Released}

Posted By: tiburon
Carol Kaye - Picking Up On The E-String (1995) {Self Released}

Carol Kaye - Picking Up On The E-String (1995) {Self Released}
EAC 1.3 | FLAC tracks level 8 | Cue+M3U | Scans 300dpi | 173MB + 5% Recovery
MP3 CBR 320 Kbps | 89MB + 5% Recovery
Genre: Jazz-Funk, Fusion

Carol Kaye is an American musician, who is one of the most prolific and widely heard bass guitarists in rock and pop music, playing on an estimated 10,000 recordings in a career spanning over 50 years. Kaye began playing guitar in her early teens and subsequently performed regularly on the Los Angeles jazz and big band circuit. She started playing sessions in 1957, and through a connection at Gold Star Studios began working for producers Phil Spector and Brian Wilson. After a bassist failed to turn up to a session in 1963, she switched to that instrument, quickly making a name for herself as one of the most in-demand session players of the 1960s, playing on numerous hits. She moved into playing on film soundtracks in the late 1960s, particularly for Quincy Jones and Lalo Schifrin, and began to release a series of tuition books such as How To Play The Electric Bass. Kaye became less active towards the end of the 1970s, but has continued her career and attracted praise from other musicians. She made a prominent appearance in the documentary film The Wrecking Crew.
Track List
01. Bass Catch 3:25
02. Moke & Poke Stomp 4:29
03. Burning Spear 2:16
04. Better Days 2:55
05. Free Sample 3:17
06. Greenapple Quickstep 2:56
07. Boogaloo 2:21
08. Slick Cat 2:48
09. TV Film Out-Takes
10. Adagio - Rodrigo

musicians
Carol Kaye - Bass
Joe Sample - Fender Rhodes, Piano
Ray Brown - Double Bass
Tom Scott - Saxophone, Flute
John Guerin - drums
Earl Palmer - drums
Paul Humphrey - Drums
Milt Holland - Congas
Joe Pass - Guitar
Howard Roberts - guitar
J.J. Johnson - Trombone
Conte Condoli - Trumpet, Flugelhorn

Produced by Carol Kaye


AUDIOCHECKER v2.0 beta (build 457) - by Dester - opdester@freemail.hu
~~~~~~~~~~~~~~~~~~~~~~~~~~~~~~~~~~
-=== DO NOT EDIT THIS FILE! ===-

Path: …\Carol Kaye - Picking Up On The E String (2003) [FLAC]

01 -=- 01 - Bass Catch.flac -=- CDDA (99%)
02 -=- 02 - Moke & Poke Stomp.flac -=- CDDA (100%)
03 -=- 03 - Burning Spear.flac -=- CDDA (100%)
04 -=- 04 - Better Days.flac -=- CDDA (100%)
05 -=- 05 - Free Sample.flac -=- CDDA (100%)
06 -=- 06 - Greenapple Quickstep.flac -=- CDDA (100%)
07 -=- 07 - Boogaloo.flac -=- CDDA (100%)
08 -=- 08 - Slick Cat.flac -=- CDDA (100%)
09 -=- 09 - TV Film Out.flac -=- CDDA (100%)
10 -=- 10 - Adagio.flac -=- CDDA (99%)

Summary 99,80% CDDA

130737780


foobar2000 1.3.13 / Dynamic Range Meter 1.1.1
log date: 2018-12-07 22:07:38

––––––––––––––––––––––––––––––––––––––––
Analyzed: Carol Kaye / Picking Up On The E String
––––––––––––––––––––––––––––––––––––––––

DR Peak RMS Duration Track
––––––––––––––––––––––––––––––––––––––––
DR9 -1.18 dB -11.88 dB 3:33 01-Bass Catch
DR10 -1.37 dB -13.79 dB 4:38 02-Moke & Poke Stomp
DR12 -1.17 dB -16.41 dB 2:23 03-Burning Spear
DR8 -3.45 dB -13.82 dB 2:30 04-Better Days
DR11 -1.90 dB -14.54 dB 3:21 05-Free Sample
DR10 -1.18 dB -13.25 dB 3:04 06-Greenapple Quickstep
DR11 -1.04 dB -15.84 dB 2:28 07-Boogaloo
DR12 -1.30 dB -15.38 dB 2:59 08-Slick Cat
DR12 -1.17 dB -16.70 dB 4:57 09-TV Film Out
DR10 -5.50 dB -19.09 dB 6:29 10-Adagio
––––––––––––––––––––––––––––––––––––––––

Number of tracks: 10
Official DR value: DR11

Samplerate: 44100 Hz
Channels: 2
Bits per sample: 16
Bitrate: 487 kbps
Codec: FLAC
================================================================================

Carol Kaye - Picking Up On The E-String (1995) {Self Released}


Thanks to the original ripper