Tags
Language
Tags

Carolyn Sampson, Robert King, The King’s Consort - Abbandonata: Handel Italian Cantatas (2018)

Posted By: ArlegZ
Carolyn Sampson, Robert King, The King’s Consort - Abbandonata: Handel Italian Cantatas (2018)

Carolyn Sampson, Robert King, The King’s Consort - Abbandonata: Handel Italian Cantatas (2018)
EAC | FLAC | Image (Cue & Log) ~ 424 Mb | Total time: 76:08 | Scans included
Classical | Label: Vivat | VIVAT 117 | Recorded: 2018

Acclaimed soprano Carolyn Sampson, partnered by Robert King and The King's Consort,with whom she has been associated throughout her professional career, turns her talents to Handel's two most dramatic cantatas, linked by the theme of abandoned women.
During his stay in Italy from 1706-10 the young Handel's eyes and ears were opened wide.Hearing Italian music played by Italian musicians in Italian palazzos, churches and theatres must have been jaw-dropping. Nowhere are those influences more vividly demonstrated than in his early Italian cantatas.
In Armida abbandonata the heroine tries, and fails, to abandon the love that has abandoned her.Storms, passion, monsters, yearning, heartache, anguish and finally resignation are all portrayed in this strongest of cantatas. Even more powerful emotions are conjured up in Agrippina condotta a morire. The mother of the crazed emperor Nero is ruthless, ambitious, scheming, domineering, violent and beautiful. Realising that she has been betrayed by her own son, her emotions swing through disbelief, injustice, fury, resentment, grief, betrayal, resilience, pride, self-pity, humiliation, thwarted vengeance and finally come to resignation. Handel pushes all the boundaries, showing techniques that were to be incorporated into his works for decades to come in music of astonishing originality.

Performer:
Carolyn Sampson, soprano
The King’s Consort
Robert King, conductor

Track List:
Dietro l'orme fugaci, HWV 105 "Armida abbandonata":
01. I. Dietro l'orme fugaci
02. II. Ah! Crudele, e pur ten vai
03. III. Per te mi struggo, infido
04. IV. O voi, dell'incostante
05. V. Venti, fermate, si
06. VI. Ma che parlo, che dico?
07. VII. Siciliana. In tanti affanni miei
Tra le fiamme, HWV 170:
08. I. Tra le fiamme
09. II. Dedalo già le fortunate penne
10. III. Pien di nuovo e bel diletto
11. IV. Si, si purtroppo è vero
12. V. Voli per l'aria
13. VI. L'uomo che nacque per salire
14. VII. Tra le fiamme
Figlio d'alte speranze, HWV 113:
15. I. Figlio d'alte speranze
16. II. Troppo costa
17. III. Era conforto il suo penar
18. IV. Sia guida, sia stella
19. V. In così dire
20. VI. Brillava protetto
Dunque sara pur vero, HWV 110 "Agrippina condotta a morire":
21. I. Dunque sarà pur vero
22. II. Orrida, oscura, l'etra si renda
23. III. Ma pria che d'empia morte
24. IV. Renda cenere il tiranno
25. V. Sì, sì del gran tiranno
26. VI. Come, o Dio!
27. VII. Si, si s'uccida
28. VIII. Cada lacero e svenato
29. IX. Se infelice al mondo vissi
30. X. Trema l'ingrato figlio
31. XI. Su lacerate il seno
32. XII. Ecco, a morte già corro


Exact Audio Copy V1.5 from 20. February 2020

EAC extraction logfile from 20. October 2020, 21:35

Carolyn Sampson / Abbandonata. Handel's Italian Cantatas

Used drive : ATAPI iHAS124 F Adapter: 1 ID: 0

Read mode : Secure
Utilize accurate stream : Yes
Defeat audio cache : Yes
Make use of C2 pointers : No

Read offset correction : 6
Overread into Lead-In and Lead-Out : No
Fill up missing offset samples with silence : Yes
Delete leading and trailing silent blocks : No
Null samples used in CRC calculations : Yes
Used interface : Native Win32 interface for Win NT & 2000

Used output format : User Defined Encoder
Selected bitrate : 1024 kBit/s
Quality : High
Add ID3 tag : No
Command line compressor : C:\Program Files (x86)\Exact Audio Copy\FLAC\FLAC.EXE
Additional command line options : -6 -V -T "ARTIST=%artist%" -T "TITLE=%title%" -T "ALBUM=%albumtitle%" -T "DATE=%year%" -T "TRACKNUMBER=%tracknr%" -T "GENRE=%genre%" -T "COMMENT=%comment%" -T "BAND=%albuminterpret%" -T "ALBUMARTIST=%albuminterpret%" -T "COMPOSER=%composer%" %haslyrics%–tag-from-file=LYRICS="%lyricsfile%"%haslyrics% -T "DISCNUMBER=%cdnumber%" -T "TOTALDISCS=%totalcds%" -T "TOTALTRACKS=%numtracks%" %hascover%–picture="%coverfile%"%hascover% %source% -o %dest%


TOC of the extracted CD

Track | Start | Length | Start sector | End sector
––––––––––––––––––––––––––––-
1 | 0:00.00 | 1:13.08 | 0 | 5482
2 | 1:13.08 | 7:37.47 | 5483 | 39804
3 | 8:50.55 | 0:30.70 | 39805 | 42124
4 | 9:21.50 | 0:57.21 | 42125 | 46420
5 | 10:18.71 | 2:53.00 | 46421 | 59395
6 | 13:11.71 | 1:06.36 | 59396 | 64381
7 | 14:18.32 | 4:43.54 | 64382 | 85660
8 | 19:02.11 | 5:51.49 | 85661 | 112034
9 | 24:53.60 | 0:54.65 | 112035 | 116149
10 | 25:48.50 | 5:06.44 | 116150 | 139143
11 | 30:55.19 | 0:15.45 | 139144 | 140313
12 | 31:10.64 | 3:03.11 | 140314 | 154049
13 | 34:14.00 | 0:22.22 | 154050 | 155721
14 | 34:36.22 | 2:35.38 | 155722 | 167384
15 | 37:11.60 | 0:36.24 | 167385 | 170108
16 | 37:48.09 | 5:15.67 | 170109 | 193800
17 | 43:04.01 | 0:27.74 | 193801 | 195899
18 | 43:32.00 | 4:11.17 | 195900 | 214741
19 | 47:43.17 | 0:16.15 | 214742 | 215956
20 | 47:59.32 | 2:41.23 | 215957 | 228054
21 | 50:40.55 | 1:02.01 | 228055 | 232705
22 | 51:42.56 | 3:05.40 | 232706 | 246620
23 | 54:48.21 | 1:01.37 | 246621 | 251232
24 | 55:49.58 | 2:23.66 | 251233 | 262023
25 | 58:13.49 | 1:24.31 | 262024 | 268354
26 | 59:38.05 | 1:56.11 | 268355 | 277065
27 | 61:34.16 | 1:42.74 | 277066 | 284789
28 | 63:17.15 | 2:56.21 | 284790 | 298010
29 | 66:13.36 | 5:33.01 | 298011 | 322986
30 | 71:46.37 | 1:02.74 | 322987 | 327710
31 | 72:49.36 | 1:42.35 | 327711 | 335395
32 | 74:31.71 | 0:34.32 | 335396 | 337977


Range status and errors

Selected range

Filename C:\EACRip\HANDEL\00 - CANTATAS\Handel - Abbandonata. Handel's Italian Cantatas (Carolyn Sampson, Robert King) (2018)\Handel - Abbandonata. Handel's Italian Cantatas - Carolyn Sampson, Robert King.wav

Peak level 97.3 %
Extraction speed 9.3 X
Range quality 100.0 %
Test CRC A03D242A
Copy CRC A03D242A
Copy OK

No errors occurred


AccurateRip summary

Track 1 not present in database
Track 2 not present in database
Track 3 not present in database
Track 4 not present in database
Track 5 not present in database
Track 6 not present in database
Track 7 not present in database
Track 8 not present in database
Track 9 not present in database
Track 10 not present in database
Track 11 not present in database
Track 12 not present in database
Track 13 not present in database
Track 14 not present in database
Track 15 not present in database
Track 16 not present in database
Track 17 not present in database
Track 18 not present in database
Track 19 not present in database
Track 20 not present in database
Track 21 not present in database
Track 22 not present in database
Track 23 not present in database
Track 24 not present in database
Track 25 not present in database
Track 26 not present in database
Track 27 not present in database
Track 28 not present in database
Track 29 not present in database
Track 30 not present in database
Track 31 not present in database
Track 32 not present in database

None of the tracks are present in the AccurateRip database

End of status report

–– CUETools DB Plugin V2.1.6

[CTDB TOCID: lJCG2N1jPQc6qD9A5IWl.popUCE-] found
Submit result: lJCG2N1jPQc6qD9A5IWl.popUCE- has been confirmed
Track | CTDB Status
1 | (7/7) Accurately ripped
2 | (7/7) Accurately ripped
3 | (7/7) Accurately ripped
4 | (7/7) Accurately ripped
5 | (7/7) Accurately ripped
6 | (7/7) Accurately ripped
7 | (7/7) Accurately ripped
8 | (7/7) Accurately ripped
9 | (7/7) Accurately ripped
10 | (7/7) Accurately ripped
11 | (7/7) Accurately ripped
12 | (7/7) Accurately ripped
13 | (7/7) Accurately ripped
14 | (7/7) Accurately ripped
15 | (7/7) Accurately ripped
16 | (7/7) Accurately ripped
17 | (7/7) Accurately ripped
18 | (7/7) Accurately ripped
19 | (7/7) Accurately ripped
20 | (7/7) Accurately ripped
21 | (7/7) Accurately ripped
22 | (7/7) Accurately ripped
23 | (7/7) Accurately ripped
24 | (7/7) Accurately ripped
25 | (7/7) Accurately ripped
26 | (7/7) Accurately ripped
27 | (7/7) Accurately ripped
28 | (7/7) Accurately ripped
29 | (7/7) Accurately ripped
30 | (7/7) Accurately ripped
31 | (7/7) Accurately ripped
32 | (7/7) Accurately ripped


==== Log checksum E81DBCD99AF154207C270569A8C45CC8881D2D0DB8340D6CE8F26BBDA459E4B7 ====

Carolyn Sampson, Robert King, The King’s Consort - Abbandonata: Handel Italian Cantatas (2018)

Thanks to the original releaser