Tags
Language
Tags

Carroll Thompson - The Other Side of Love (1992) [2008]

Posted By: JET 1
Carroll Thompson - The Other Side of Love (1992) [2008]

Carroll Thompson - The Other Side of Love (1992) [2008]
EAC Rip | FLAC (Tracks) +CUE, LOG | 453 MB | Scans
Genre: Reggae, Funk, Soul | Label: Ariwa / Victor Records | Catalog Number: VICP-64071

Carroll Thompson is a British lovers rock singer, best known as the “Queen of Lovers Rock”.
b. 1960, Letchworth, Hertfordshire, England. Thompson’s voice was nurtured while singing in school and church choirs, but she studied for a career in the pharmaceuticals industry. In the mid-70s she provided backing vocals in a number of UK-based recording studios, following a successful audition to join the disco band Sugar Cane (the group was a further attempt at disco domination by Frank Farian, but was later abandoned). She sang on sessions for UK-based reggae performers, as well as Imagination and soca star Norma White. Thompson subsequently embarked on a solo career and by 1981 she had topped the reggae chart twice, with ‘I’m Sorry’ and ‘Simply In Love’, for the Itals. In 1982 she scooped two accolades at the GLR Reggae Awards. She was voted best female performer and ‘Hopelessly In Love’ was deemed the best song. She maintained a high profile with the release of ‘Smiling In The Morning’ for Excaliber, ‘Your Love’ and ‘Hopelessly Without You’ for S&G, with whom she also worked in a production role. Her prominence led to the release of a single by her harmony singer, Saffrice, ‘Dreaming Of Your Love’, through S&G. As they were unable to provide Thompson with the necessary promotion, the S&G group initiated an agreement with the Red Bus label to further her career. The releases of ‘Just A Little Bit’ and ‘A Happy Song’ were met with animosity from the media and the ballads faltered, resulting in a short-term agreement. Her prolific career continued, however, and in 1983 she secured further awards, including a citation from the Voice, and was voted top female vocalist for the second time by GLR listeners. She also recorded duets with Sugar Minott (‘Make It With You’) and Trevor Walters (‘Love Won’t Let Us Wait’). Her solo hits include ‘Honest I Do’, ‘Give Me A Chance’ and ‘You Make It Heaven’. By 1984 her recorded output had dwindled, although the release of ‘Baby Be True’ secured an acceptable chart placing. Thompson maintained her high profile with commendable performances at both the GLR Reggae Awards and fifth Black Echoes Awards ceremonies. In 1985 she worked with the funk group Total Contrast, resulting in the release of ‘Apple Of My Eye’. In 1990 she was invited to provide the lead vocals on a joint production with Aswad and Courtney Pine, for the release of a version of Diana Ross’ ‘I’m Still Waiting’, which sat at the lower end of the UK chart. She also entered the UK chart in the same year as a featured vocalist for Movement 98 with ‘Joy And Heartbreak’ and ‘Sunrise’. In 1994 Thompson joined Alton Ellis, Prince Lincoln, Justin Hinds, Dennis Alcapone and Owen Gray in a memorial concert for Gene Rondo.

Exact Audio Copy V1.5 from 20. February 2020

EAC extraction logfile from 31. October 2020, 11:20

Carroll Thompson / The Other Side Of Love

Used drive : HL-DT-STDVDRAM GUE0N Adapter: 1 ID: 0

Read mode : Secure
Utilize accurate stream : Yes
Defeat audio cache : Yes
Make use of C2 pointers : No

Read offset correction : 102
Overread into Lead-In and Lead-Out : No
Fill up missing offset samples with silence : Yes
Delete leading and trailing silent blocks : No
Null samples used in CRC calculations : Yes
Used interface : Native Win32 interface for Win NT & 2000
Gap handling : Appended to previous track

Used output format : User Defined Encoder
Selected bitrate : 1024 kBit/s
Quality : High
Add ID3 tag : No
Command line compressor : C:\Users\mreyes\Downloads\FLAC.exe\flac.exe
Additional command line options : -8 -V -T "ARTIST=%artist%" -T "TITLE=%title%" -T "ALBUM=%albumtitle%" -T "DATE=%year%" -T "TRACKNUMBER=%tracknr%" -T "GENRE=%genre%" -T "PERFORMER=%albuminterpret%" -T "COMPOSER=%composer%" -T "ALBUMARTIST=%albumartist%" -T "DISCNUMBER=%cdnumber%" -T "TOTALDISCS=%totalcds%" -T "TOTALTRACKS=%numtracks%" -T "COMMENT=%comment%" %source% -o %dest%


TOC of the extracted CD

Track | Start | Length | Start sector | End sector
––––––––––––––––––––––––––––-
1 | 0:00.00 | 4:27.35 | 0 | 20059
2 | 4:27.35 | 3:53.25 | 20060 | 37559
3 | 8:20.60 | 3:50.24 | 37560 | 54833
4 | 12:11.09 | 3:29.28 | 54834 | 70536
5 | 15:40.37 | 4:02.66 | 70537 | 88752
6 | 19:43.28 | 5:18.28 | 88753 | 112630
7 | 25:01.56 | 3:35.25 | 112631 | 128780
8 | 28:37.06 | 4:11.18 | 128781 | 147623
9 | 32:48.24 | 3:55.23 | 147624 | 165271
10 | 36:43.47 | 8:26.25 | 165272 | 203246
11 | 45:09.72 | 5:12.73 | 203247 | 226719
12 | 50:22.70 | 3:33.24 | 226720 | 242718
13 | 53:56.19 | 4:20.52 | 242719 | 262270
14 | 58:16.71 | 3:23.14 | 262271 | 277509
15 | 61:40.10 | 3:58.73 | 277510 | 295432


Track 1

Filename C:\Users\mreyes\Desktop\Fool\Carroll Thompson - 1992 - The Other Side Of Love (2008 Victor VICP-64071)\01 The Other Side Of Love.wav

Pre-gap length 0:00:02.00

Peak level 99.8 %
Extraction speed 2.5 X
Track quality 100.0 %
Test CRC 047436C4
Copy CRC 047436C4
Track not present in AccurateRip database
Copy OK

Track 2

Filename C:\Users\mreyes\Desktop\Fool\Carroll Thompson - 1992 - The Other Side Of Love (2008 Victor VICP-64071)\02 I Go Weak.wav

Pre-gap length 0:00:02.68

Peak level 99.8 %
Extraction speed 2.7 X
Track quality 100.0 %
Test CRC E4FADC72
Copy CRC E4FADC72
Track not present in AccurateRip database
Copy OK

Track 3

Filename C:\Users\mreyes\Desktop\Fool\Carroll Thompson - 1992 - The Other Side Of Love (2008 Victor VICP-64071)\03 Lovers And Strangers.wav

Pre-gap length 0:00:02.94

Peak level 99.8 %
Extraction speed 2.9 X
Track quality 100.0 %
Test CRC 4F9374C7
Copy CRC 4F9374C7
Track not present in AccurateRip database
Copy OK

Track 4

Filename C:\Users\mreyes\Desktop\Fool\Carroll Thompson - 1992 - The Other Side Of Love (2008 Victor VICP-64071)\04 Move Me.wav

Pre-gap length 0:00:03.09

Peak level 99.8 %
Extraction speed 3.1 X
Track quality 100.0 %
Test CRC 482F9CC8
Copy CRC 482F9CC8
Track not present in AccurateRip database
Copy OK

Track 5

Filename C:\Users\mreyes\Desktop\Fool\Carroll Thompson - 1992 - The Other Side Of Love (2008 Victor VICP-64071)\05 Walk Away.wav

Pre-gap length 0:00:02.54

Peak level 99.0 %
Extraction speed 3.3 X
Track quality 100.0 %
Test CRC 0F44799E
Copy CRC 0F44799E
Track not present in AccurateRip database
Copy OK

Track 6

Filename C:\Users\mreyes\Desktop\Fool\Carroll Thompson - 1992 - The Other Side Of Love (2008 Victor VICP-64071)\06 Unity.wav

Pre-gap length 0:00:02.00

Peak level 99.8 %
Extraction speed 3.1 X
Track quality 99.9 %
Test CRC 1442F706
Copy CRC 1442F706
Track not present in AccurateRip database
Copy OK

Track 7

Filename C:\Users\mreyes\Desktop\Fool\Carroll Thompson - 1992 - The Other Side Of Love (2008 Victor VICP-64071)\07 Show Some Love.wav

Pre-gap length 0:00:02.02

Peak level 93.6 %
Extraction speed 3.6 X
Track quality 100.0 %
Test CRC 3E82F79C
Copy CRC 3E82F79C
Track not present in AccurateRip database
Copy OK

Track 8

Filename C:\Users\mreyes\Desktop\Fool\Carroll Thompson - 1992 - The Other Side Of Love (2008 Victor VICP-64071)\08 Where Were You.wav

Pre-gap length 0:00:01.72

Peak level 99.8 %
Extraction speed 3.9 X
Track quality 100.0 %
Test CRC B38B6A42
Copy CRC B38B6A42
Track not present in AccurateRip database
Copy OK

Track 9

Filename C:\Users\mreyes\Desktop\Fool\Carroll Thompson - 1992 - The Other Side Of Love (2008 Victor VICP-64071)\09 A Natural Woman.wav

Pre-gap length 0:00:02.00

Peak level 99.8 %
Extraction speed 4.0 X
Track quality 100.0 %
Test CRC EE5A6882
Copy CRC EE5A6882
Track not present in AccurateRip database
Copy OK

Track 10

Filename C:\Users\mreyes\Desktop\Fool\Carroll Thompson - 1992 - The Other Side Of Love (2008 Victor VICP-64071)\10 Rock Me Gently.wav

Pre-gap length 0:00:02.00

Peak level 99.8 %
Extraction speed 4.6 X
Track quality 100.0 %
Test CRC 0064D0C4
Copy CRC 0064D0C4
Track not present in AccurateRip database
Copy OK

Track 11

Filename C:\Users\mreyes\Desktop\Fool\Carroll Thompson - 1992 - The Other Side Of Love (2008 Victor VICP-64071)\11 Unity In The Community (featuring U-Roy).wav

Pre-gap length 0:00:02.00

Peak level 99.8 %
Extraction speed 4.6 X
Track quality 100.0 %
Test CRC A51E2989
Copy CRC A51E2989
Track not present in AccurateRip database
Copy OK

Track 12

Filename C:\Users\mreyes\Desktop\Fool\Carroll Thompson - 1992 - The Other Side Of Love (2008 Victor VICP-64071)\12 Where Is The Love (featuring MackaB).wav

Pre-gap length 0:00:01.00

Peak level 91.5 %
Extraction speed 4.4 X
Track quality 100.0 %
Test CRC D92A693A
Copy CRC D92A693A
Track not present in AccurateRip database
Copy OK

Track 13

Filename C:\Users\mreyes\Desktop\Fool\Carroll Thompson - 1992 - The Other Side Of Love (2008 Victor VICP-64071)\13 The Other Side Of Dub.wav

Pre-gap length 0:00:04.00

Peak level 99.8 %
Extraction speed 4.8 X
Track quality 100.0 %
Test CRC FE54E1AC
Copy CRC FE54E1AC
Track not present in AccurateRip database
Copy OK

Track 14

Filename C:\Users\mreyes\Desktop\Fool\Carroll Thompson - 1992 - The Other Side Of Love (2008 Victor VICP-64071)\14 Movements Of Dub.wav

Pre-gap length 0:00:01.72

Peak level 99.8 %
Extraction speed 3.3 X
Track quality 99.9 %
Test CRC A3029274
Copy CRC A3029274
Track not present in AccurateRip database
Copy OK

Track 15

Filename C:\Users\mreyes\Desktop\Fool\Carroll Thompson - 1992 - The Other Side Of Love (2008 Victor VICP-64071)\15 Dubbing Away.wav

Pre-gap length 0:00:01.72

Peak level 88.2 %
Extraction speed 5.0 X
Track quality 100.0 %
Test CRC EC5D59F9
Copy CRC EC5D59F9
Track not present in AccurateRip database
Copy OK


None of the tracks are present in the AccurateRip database

No errors occurred

End of status report

–– CUETools DB Plugin V2.1.6

[CTDB TOCID: WwrA9wC.Sk0Seu1LuOZZF1vYNM0-] found
Submit result: WwrA9wC.Sk0Seu1LuOZZF1vYNM0- has been confirmed
Track | CTDB Status
1 | (2/2) Accurately ripped
2 | (2/2) Accurately ripped
3 | (2/2) Accurately ripped
4 | (2/2) Accurately ripped
5 | (2/2) Accurately ripped
6 | (2/2) Accurately ripped
7 | (2/2) Accurately ripped
8 | (2/2) Accurately ripped
9 | (2/2) Accurately ripped
10 | (2/2) Accurately ripped
11 | (2/2) Accurately ripped
12 | (2/2) Accurately ripped
13 | (2/2) Accurately ripped
14 | (2/2) Accurately ripped
15 | (2/2) Accurately ripped


==== Log checksum 33F62E0830D1B26BD3371F7D65087AF36A7669A074DBE5593457077A39635BC9 ====

Tracklist ::::
01. The Other Side of Love (4:27)
02. I Go Weak (3:53)
03. Lovers and Strangers (3:50)
04. Move Me (3:29)
05. Walk Away (4:03)
06. Unity (5:18)
07. Show Some Love (3:35)
08. Where Were You (4:11)
09. A Natural Woman (3:55)
10. Rock Me Gently (8:26)
11. Unity in the Community (feat. U-Roy) (5:13)
12. Where Is the Love (feat. Macka B) (3:33)
13. The Other Side of Dub (feat. Mad Professor) (4:21)
14. Movements of Dub (feat. Joe Ariwa) (3:23)
15. Dubbing Away (feat. Joe Ariwa) (3:59)

Thanks to Original Re-leaser.