Tags
Language
Tags

Jean-Louis Charbonnier, Paul Rousseau, Mauricio Buraglia, Pierre Trocellier - Marais: Six suites d'un goût français (1996)

Posted By:
Jean-Louis Charbonnier, Paul Rousseau, Mauricio Buraglia, Pierre Trocellier - Marais: Six suites d'un goût français (1996)

Jean-Louis Charbonnier, Paul Rousseau, Mauricio Buraglia, Pierre Trocellier - Marin Marais: Six suites d'un goût français (1996)
EAC | FLAC | Image (Cue & Log) ~ 590 Mb | Total time: 53:01+53:04 | Scans included
Classical | Label: Pierre Verany | # PV796012/13 | Recorded: 1994

"On peut dire que Marais a porté la Viole à son plus haut degré de perfection , et qu'il est le premier qui en a fait connoître toute l'étendue et toute les beautés par le grand nombre d'excellentes pièces qu'il a composées pour cet Instrument, et par la manière admirable dont il les exécutoît", écrivait Evrard Titon du Tillet dans ses "Vies des Musiciens (..) du règne de Louis le Grand"(1), avant de rappeler que Sainte Colombe, Maître de Marais, ne manquait pas de "rendre toujours justice [à son élève] sur le progrès étonnant qu'il avoit fait sur la Viole ; et étant un jour dans une compagnie où Marais jouoit de la Viole, ayant été interrogé par des personnes de distinction sur ce qu'il pensoit de sa manière de jouer, il leur répondit qu'il y avoit des Elèves qui pouvoient surpasser leur Maître, mais que le jeune Marais n'en trouverais jamais qui le surpassât. Pour rendre la Viole plus sonore Marais est le premier qui ait imaginé de faire filer en laiton les trois dernières cordes des Basses."
"Un grand nombre de pièces" ? Doux euphémisme pour dire la surabondante production d'un virtuose et compositeur qui ne lègue pas moins de 593 morceaux pour la basse de viole ! En ensemble passionnant car outre ses qualités strictement musicales, il témoigne aussi de la démarche d'un créateur qui, comme le notait Titon du Tillet, se soucia de repousser les limites expressives de son instrument.
Passionné par ce répertoire, Jean-Louis Charbonnier s'est d'abord lancé dans l'enregistrement intégral de l'œuvre de Marais (chez Pierre Verany-Arion) et, à chaque volume, on goûte son approche intelligente, poétique, vivante car toujours admirablement articulée.
–Alain Cochard

Performer:
Jean-Louis Charbonnier, viole
Paul Rousseau, viole
Mauricio Buragia, théorbe
Pierre Trocelier, clavecin

Track List:
CD1:
Suite en La mineur No. IV
01. Prélude
02. Allemande
03. Gavotte
04. Gigue
05. Caprice
06. Muzettes
07. La SautilLante et Double
08. Rondeau Louré
Suite en Re mineur No. II
09. Prélude
10. Allemande La Guinebault
11. Allemande La Familière
12. Boutade
13. Gavotte La Favoritte
14. La petite Brillante
15. Rondeau Le Gracieux
Suite en Fa majeur No. III
16. Prélude
17. Allemande
18. Gavotte
19. Gigue
20. Menuets
21. La Provençale
22. Chaconne
CD2:
Suite en Mi Mineur No. VI
01. Prélude
02. Fantasie
03. Allemande
04. Sarabande à l’Espagnol
05. Gigue La Piquante
06. Gavotte
07. Rondeau Paysan
08. Menuets
09. La Matelotte
10. La Biscayenne
Suite en La majeur No. V
11. Prélude
12. Caprice
13. Allemande L’Enfantine
14. Sarabande La Gracieuse
15. Le Bout Entrain, Gigue et Double
16. Le Basque et Double
17. Branle de Village
18. Rondeau L’Agréable
19. Menuets
Suite en Re Mineur No. I
20. Prélude
21. Allemande
22. La Mignone
23. Caprice
24. Menuet
25. Gigle La Petite
26. Rondeau


Exact Audio Copy V1.3 from 2. September 2016

EAC extraction logfile from 20. October 2019, 1:53

Jean-Louis Charbonnier / M.Marais - Pieces de Viole - 4' Livre 1717 - CD1

Used drive : hp CDDVDW SU-208GB Adapter: 1 ID: 0

Read mode : Secure
Utilize accurate stream : Yes
Defeat audio cache : Yes
Make use of C2 pointers : No

Read offset correction : 6
Overread into Lead-In and Lead-Out : No
Fill up missing offset samples with silence : Yes
Delete leading and trailing silent blocks : No
Null samples used in CRC calculations : Yes
Used interface : Native Win32 interface for Win NT & 2000

Used output format : User Defined Encoder
Selected bitrate : 1024 kBit/s
Quality : High
Add ID3 tag : No
Command line compressor : C:\Program Files (x86)\Exact Audio Copy\FLAC\FLAC.EXE
Additional command line options : -6 -V -T "ARTIST=%artist%" -T "TITLE=%title%" -T "ALBUM=%albumtitle%" -T "DATE=%year%" -T "TRACKNUMBER=%tracknr%" -T "GENRE=%genre%" -T "COMMENT=%comment%" -T "BAND=%albuminterpret%" -T "ALBUMARTIST=%albuminterpret%" -T "COMPOSER=%composer%" %haslyrics%–tag-from-file=LYRICS="%lyricsfile%"%haslyrics% -T "DISCNUMBER=%cdnumber%" -T "TOTALDISCS=%totalcds%" -T "TOTALTRACKS=%numtracks%" %hascover%–picture="%coverfile%"%hascover% %source% -o %dest%


TOC of the extracted CD

Track | Start | Length | Start sector | End sector
––––––––––––––––––––––––––––-
1 | 0:00.00 | 3:33.60 | 0 | 16034
2 | 3:33.60 | 2:28.55 | 16035 | 27189
3 | 6:02.40 | 1:39.47 | 27190 | 34661
4 | 7:42.12 | 1:33.10 | 34662 | 41646
5 | 9:15.22 | 1:01.15 | 41647 | 46236
6 | 10:16.37 | 2:38.60 | 46237 | 58146
7 | 12:55.22 | 1:50.45 | 58147 | 66441
8 | 14:45.67 | 7:10.08 | 66442 | 98699
9 | 21:56.00 | 2:32.55 | 98700 | 110154
10 | 24:28.55 | 1:44.30 | 110155 | 117984
11 | 26:13.10 | 2:10.42 | 117985 | 127776
12 | 28:23.52 | 1:12.00 | 127777 | 133176
13 | 29:35.52 | 2:42.48 | 133177 | 145374
14 | 32:18.25 | 0:52.40 | 145375 | 149314
15 | 33:10.65 | 5:49.02 | 149315 | 175491
16 | 38:59.67 | 1:36.20 | 175492 | 182711
17 | 40:36.12 | 2:18.33 | 182712 | 193094
18 | 42:54.45 | 1:20.02 | 193095 | 199096
19 | 44:14.47 | 1:08.60 | 199097 | 204256
20 | 45:23.32 | 1:31.23 | 204257 | 211104
21 | 46:54.55 | 2:42.35 | 211105 | 223289
22 | 49:37.15 | 3:24.40 | 223290 | 238629


Range status and errors

Selected range

Filename C:\Users\MATS\Downloads\M.Marais - Pieces de Viole - 4' Livre 1717 - CD1\Jean-Louis Charbonnier - M.Marais - Pieces de Viole - 4' Livre 1717 - CD1.wav

Peak level 91.1 %
Extraction speed 1.8 X
Range quality 100.0 %
Test CRC 3E2A3A84
Copy CRC 3E2A3A84
Copy OK

No errors occurred


AccurateRip summary

Track 1 accurately ripped (confidence 4) [7BFB8304] (AR v2)
Track 2 accurately ripped (confidence 4) [38387B0C] (AR v2)
Track 3 accurately ripped (confidence 4) [0CB54094] (AR v2)
Track 4 accurately ripped (confidence 4) [4F907E95] (AR v2)
Track 5 accurately ripped (confidence 4) [4E8D21A6] (AR v2)
Track 6 accurately ripped (confidence 4) [B004573A] (AR v2)
Track 7 accurately ripped (confidence 4) [9729286F] (AR v2)
Track 8 accurately ripped (confidence 4) [67D91CD7] (AR v2)
Track 9 accurately ripped (confidence 4) [05866891] (AR v2)
Track 10 accurately ripped (confidence 4) [DD581C38] (AR v2)
Track 11 accurately ripped (confidence 4) [80B9124A] (AR v2)
Track 12 accurately ripped (confidence 4) [6A35B63B] (AR v2)
Track 13 accurately ripped (confidence 4) [151101D0] (AR v2)
Track 14 accurately ripped (confidence 4) [D95C9F4E] (AR v2)
Track 15 accurately ripped (confidence 4) [9390713D] (AR v2)
Track 16 accurately ripped (confidence 4) [433083B6] (AR v2)
Track 17 accurately ripped (confidence 4) [D2576CF8] (AR v2)
Track 18 accurately ripped (confidence 4) [C15EB3BA] (AR v2)
Track 19 accurately ripped (confidence 4) [BD67A1CE] (AR v2)
Track 20 accurately ripped (confidence 4) [FA42A8C9] (AR v2)
Track 21 accurately ripped (confidence 4) [04825B15] (AR v2)
Track 22 accurately ripped (confidence 4) [D1B0981B] (AR v2)

All tracks accurately ripped

End of status report

–– CUETools DB Plugin V2.1.6

[CTDB TOCID: hEJcsmKlfzr.M5UT21aJ3Bhy8_s-] database access error: Se excedió el tiempo de espera de la operación


==== Log checksum 652991CBDC80131B2BEFF6EC36B6EC15DAE2C7421AA40C4F9F532C21A40EDF75 ====


Exact Audio Copy V1.3 from 2. September 2016

EAC extraction logfile from 20. October 2019, 2:46

Jean-Louis Charbonnier / Six Suites d'un gout francais - 1717

Used drive : hp CDDVDW SU-208GB Adapter: 1 ID: 0

Read mode : Secure
Utilize accurate stream : Yes
Defeat audio cache : Yes
Make use of C2 pointers : No

Read offset correction : 6
Overread into Lead-In and Lead-Out : No
Fill up missing offset samples with silence : Yes
Delete leading and trailing silent blocks : No
Null samples used in CRC calculations : Yes
Used interface : Native Win32 interface for Win NT & 2000

Used output format : User Defined Encoder
Selected bitrate : 1024 kBit/s
Quality : High
Add ID3 tag : No
Command line compressor : C:\Program Files (x86)\Exact Audio Copy\FLAC\FLAC.EXE
Additional command line options : -6 -V -T "ARTIST=%artist%" -T "TITLE=%title%" -T "ALBUM=%albumtitle%" -T "DATE=%year%" -T "TRACKNUMBER=%tracknr%" -T "GENRE=%genre%" -T "COMMENT=%comment%" -T "BAND=%albuminterpret%" -T "ALBUMARTIST=%albuminterpret%" -T "COMPOSER=%composer%" %haslyrics%–tag-from-file=LYRICS="%lyricsfile%"%haslyrics% -T "DISCNUMBER=%cdnumber%" -T "TOTALDISCS=%totalcds%" -T "TOTALTRACKS=%numtracks%" %hascover%–picture="%coverfile%"%hascover% %source% -o %dest%


TOC of the extracted CD

Track | Start | Length | Start sector | End sector
––––––––––––––––––––––––––––-
1 | 0:00.00 | 3:38.30 | 0 | 16379
2 | 3:38.30 | 0:50.27 | 16380 | 20156
3 | 4:28.57 | 2:13.03 | 20157 | 30134
4 | 6:41.60 | 2:00.40 | 30135 | 39174
5 | 8:42.25 | 1:12.67 | 39175 | 44641
6 | 9:55.17 | 1:19.50 | 44642 | 50616
7 | 11:14.67 | 1:27.40 | 50617 | 57181
8 | 12:42.32 | 2:14.03 | 57182 | 67234
9 | 14:56.35 | 2:50.35 | 67235 | 80019
10 | 17:46.70 | 1:40.25 | 80020 | 87544
11 | 19:27.20 | 2:56.25 | 87545 | 100769
12 | 22:23.45 | 1:00.12 | 100770 | 105281
13 | 23:23.57 | 1:54.15 | 105282 | 113846
14 | 25:17.72 | 3:03.68 | 113847 | 127639
15 | 28:21.65 | 2:55.10 | 127640 | 140774
16 | 31:17.00 | 1:36.70 | 140775 | 148044
17 | 32:53.70 | 0:59.47 | 148045 | 152516
18 | 33:53.42 | 4:15.05 | 152517 | 171646
19 | 38:08.47 | 1:41.28 | 171647 | 179249
20 | 39:50.00 | 3:11.50 | 179250 | 193624
21 | 43:01.50 | 1:46.55 | 193625 | 201629
22 | 44:48.30 | 1:08.37 | 201630 | 206766
23 | 45:56.67 | 1:22.25 | 206767 | 212941
24 | 47:19.17 | 0:34.45 | 212942 | 215536
25 | 47:53.62 | 1:13.68 | 215537 | 221079
26 | 49:07.55 | 4:00.00 | 221080 | 239079


Range status and errors

Selected range

Filename C:\Users\MATS\Downloads\M.Marais - Pieces de Viole - 4' Livre 1717 - CD2\Jean-Louis Charbonnier - Six Suites d'un gout francais - 1717.wav

Peak level 88.6 %
Extraction speed 3.6 X
Range quality 100.0 %
Test CRC 9ACCF24A
Copy CRC 9ACCF24A
Copy OK

No errors occurred


AccurateRip summary

Track 1 accurately ripped (confidence 4) [06B6F2B6] (AR v2)
Track 2 accurately ripped (confidence 4) [BCC1402D] (AR v2)
Track 3 accurately ripped (confidence 4) [57803263] (AR v2)
Track 4 accurately ripped (confidence 4) [A19EBCCE] (AR v2)
Track 5 accurately ripped (confidence 4) [35FE28FA] (AR v2)
Track 6 accurately ripped (confidence 4) [33149FF3] (AR v2)
Track 7 accurately ripped (confidence 4) [7164F06A] (AR v2)
Track 8 accurately ripped (confidence 4) [56A837AD] (AR v2)
Track 9 accurately ripped (confidence 4) [088BE9DB] (AR v2)
Track 10 accurately ripped (confidence 4) [F8751138] (AR v2)
Track 11 accurately ripped (confidence 4) [653B111F] (AR v2)
Track 12 accurately ripped (confidence 4) [5B54ECAE] (AR v2)
Track 13 accurately ripped (confidence 4) [7302FAB6] (AR v2)
Track 14 accurately ripped (confidence 4) [EEF65468] (AR v2)
Track 15 accurately ripped (confidence 4) [B674766F] (AR v2)
Track 16 accurately ripped (confidence 4) [D790159E] (AR v2)
Track 17 accurately ripped (confidence 4) [F6A36D0B] (AR v2)
Track 18 accurately ripped (confidence 4) [9C18EBD7] (AR v2)
Track 19 accurately ripped (confidence 4) [37EF5877] (AR v2)
Track 20 accurately ripped (confidence 4) [265C55C8] (AR v2)
Track 21 accurately ripped (confidence 4) [A4E5E8CE] (AR v2)
Track 22 accurately ripped (confidence 4) [4D721222] (AR v2)
Track 23 accurately ripped (confidence 4) [A3C6512B] (AR v2)
Track 24 accurately ripped (confidence 4) [C297DDA9] (AR v2)
Track 25 accurately ripped (confidence 4) [C2573457] (AR v2)
Track 26 accurately ripped (confidence 4) [E1584B5A] (AR v2)

All tracks accurately ripped

End of status report

–– CUETools DB Plugin V2.1.6

[CTDB TOCID: MGgzXnmJ2A71ag_RdCOVOrBWsvI-] found
Submit result: MGgzXnmJ2A71ag_RdCOVOrBWsvI- has been confirmed
Track | CTDB Status
1 | (10/10) Accurately ripped
2 | (10/10) Accurately ripped
3 | (10/10) Accurately ripped
4 | (10/10) Accurately ripped
5 | (10/10) Accurately ripped
6 | (10/10) Accurately ripped
7 | (10/10) Accurately ripped
8 | (10/10) Accurately ripped
9 | (10/10) Accurately ripped
10 | (10/10) Accurately ripped
11 | (10/10) Accurately ripped
12 | (10/10) Accurately ripped
13 | (10/10) Accurately ripped
14 | (10/10) Accurately ripped
15 | (10/10) Accurately ripped
16 | (10/10) Accurately ripped
17 | (10/10) Accurately ripped
18 | (10/10) Accurately ripped
19 | (10/10) Accurately ripped
20 | (10/10) Accurately ripped
21 | (10/10) Accurately ripped
22 | (10/10) Accurately ripped
23 | (10/10) Accurately ripped
24 | (10/10) Accurately ripped
25 | (10/10) Accurately ripped
26 | (10/10) Accurately ripped


==== Log checksum 1CF0B8B130AD017C28B2B064E69138C2A3366035C2D2FC6044A0031ACB452E05 ====

Jean-Louis Charbonnier, Paul Rousseau, Mauricio Buraglia, Pierre Trocellier - Marais: Six suites d'un goût français (1996)

Thanks to the original releaser