Tags
Language
Tags

Charles Mingus - Mingus at Carnegie Hall (1974) [2CD Deluxe Japanese Edition 2021]

Posted By: gribovar
Charles Mingus - Mingus at Carnegie Hall (1974) [2CD Deluxe Japanese Edition 2021]

Charles Mingus - Mingus at Carnegie Hall (1974) [2CD Deluxe Japanese Edition 2021]
EAC Rip | FLAC (tracks+.cue+log) - 829 MB | Covers - 71 MB
Genre: Jazz, Post-Bop, Avant-garde Jazz | RAR 3% Rec. | Label: Warner Music Japan (WPCR-18445/6)

This 2-CD set takes the 1974 album Mingus At Carnegie Hall (Atlantic) and adds seventy minutes of previously unissued material recorded at the same concert.
Mingus led many great bands during his career, but those from the the late 1950s and early 1960s have tended to be perceived as representing his belle epoque, overshadowing some equally outstanding later aggregations. One of these is Mingus' mid 1970s quintet with trumpeter Jack Walrath, tenor saxophonist George Adams, pianist Don Pullen and drummer Dannie Richmond, who are featured on the 1975 portion of the Bremen set. The previous year, Mingus led a sextet including Adams, Pullen and Richmond, in which Jon Faddis was the trumpeter and Hamiet Bluiett played baritone saxophone. This is the core group heard on Mingus At Carnegie Hall (Deluxe Edition), augmented on the two tracks which made up the 1974 release ("Perdido" and "C Jam Blues") by three guest artists and Mingus alumni, tenor saxophonist Rahsaan Roland Kirk and alto saxophonists John Handy and Charles McPherson.
CD1 starts with a brief introduction by concert promoter Art Weiner. This is followed by vibrant versions of three Mingus favourites, "Peggy's Blue Skylight" (first recorded by him in 1961), "Celia" (ditto 1957) and "Fables Of Faubus" (ditto 1959). CD2 opens with a new piece, Pullen's joyous "Big Alice." The previously released second half of the concert, "Perdido" and "C Jam Blues," follows.
Mingus and Richmond aside, the magic thread running through Mingus At Carnegie Hall (Deluxe Edition) is the symbiotic inside/outside relationship of Adams and Pullen (which was soon to be formalized in their own, co-led band). That is not to suggest that Faddis or Bluiett fall short. Indeed, Faddis pretty much makes "Celia" his own. The saxophone quintet heard on we already know from the 1974 release to be something special. All this and great sound, too. Verily, our cup runneth over.
CD 1 Tracklist:
01. Introduction
02. Peggy's Blue Skylight
03. Celia
04. Fables of Faubus

Total time: 58:56

CD 2 Tracklist:
01. Big Alice
02. Perdido
03. C Jam Blues

Total time: 01:05:54

Exact Audio Copy V1.3 from 2. September 2016

EAC extraction logfile from 1. September 2021, 16:07

Charles Mingus / Mingus at Carnegie Hall

Used drive : PLEXTOR DVDR PX-716A Adapter: 1 ID: 1

Read mode : Secure
Utilize accurate stream : Yes
Defeat audio cache : Yes
Make use of C2 pointers : No

Read offset correction : 30
Overread into Lead-In and Lead-Out : No
Fill up missing offset samples with silence : Yes
Delete leading and trailing silent blocks : No
Null samples used in CRC calculations : Yes
Used interface : Native Win32 interface for Win NT & 2000
Gap handling : Appended to previous track

Used output format : User Defined Encoder
Selected bitrate : 768 kBit/s
Quality : High
Add ID3 tag : No
Command line compressor : C:\Program Files (x86)\Exact Audio Copy\FLAC\FLAC.EXE
Additional command line options : -6 -V -T "ARTIST=%artist%" -T "TITLE=%title%" -T "ALBUM=%albumtitle%" -T "DATE=%year%" -T "TRACKNUMBER=%tracknr%" -T "GENRE=%genre%" -T "COMMENT=%comment%" -T "BAND=%albuminterpret%" -T "ALBUMARTIST=%albuminterpret%" -T "COMPOSER=%composer%" %haslyrics%–tag-from-file=LYRICS="%lyricsfile%"%haslyrics% -T "DISCNUMBER=%cdnumber%" -T "TOTALDISCS=%totalcds%" -T "TOTALTRACKS=%numtracks%" %hascover%–picture="%coverfile%"%hascover% %source% -o %dest%


TOC of the extracted CD

Track | Start | Length | Start sector | End sector
––––––––––––––––––––––––––––-
1 | 0:00.00 | 3:11.14 | 0 | 14338
2 | 3:11.14 | 11:56.71 | 14339 | 68109
3 | 15:08.10 | 22:56.17 | 68110 | 171326
4 | 38:04.27 | 20:51.43 | 171327 | 265194


Track 1

Filename C:\EAC\Charles Mingus - 2021 - Mingus at Carnegie Hall\CD 1\01 - Charles Mingus - Introduction.wav

Pre-gap length 0:00:02.00

Peak level 97.7 %
Extraction speed 8.2 X
Track quality 100.0 %
Test CRC BD446A25
Copy CRC BD446A25
Cannot be verified as accurate (confidence 1) [5BEFFAF8], AccurateRip returned [F0C44956] (AR v2)
Copy OK

Track 2

Filename C:\EAC\Charles Mingus - 2021 - Mingus at Carnegie Hall\CD 1\02 - Charles Mingus - Peggy's Blue Skylight.wav

Peak level 97.7 %
Extraction speed 10.1 X
Track quality 100.0 %
Test CRC 01C42384
Copy CRC 01C42384
Cannot be verified as accurate (confidence 1) [0F42F906], AccurateRip returned [B153B084] (AR v2)
Copy OK

Track 3

Filename C:\EAC\Charles Mingus - 2021 - Mingus at Carnegie Hall\CD 1\03 - Charles Mingus - Celia.wav

Pre-gap length 0:00:02.00

Peak level 97.7 %
Extraction speed 13.2 X
Track quality 100.0 %
Test CRC E308C837
Copy CRC E308C837
Cannot be verified as accurate (confidence 1) [BC36E281], AccurateRip returned [B1EB1E80] (AR v2)
Copy OK

Track 4

Filename C:\EAC\Charles Mingus - 2021 - Mingus at Carnegie Hall\CD 1\04 - Charles Mingus - Fables of Faubus.wav

Pre-gap length 0:00:02.00

Peak level 97.7 %
Extraction speed 15.8 X
Track quality 100.0 %
Test CRC C2276B77
Copy CRC C2276B77
Cannot be verified as accurate (confidence 1) [8192DD2E], AccurateRip returned [74E2017A] (AR v2)
Copy OK


No tracks could be verified as accurate
You may have a different pressing from the one(s) in the database

No errors occurred

End of status report

–– CUETools DB Plugin V2.1.6

[CTDB TOCID: hId.p1fK6YzMlfa9skosOsepUbk-] found
Submit result: hId.p1fK6YzMlfa9skosOsepUbk- has been confirmed
Track | CTDB Status
1 | (20/20) Accurately ripped
2 | (20/20) Accurately ripped
3 | (20/20) Accurately ripped
4 | (20/20) Accurately ripped


==== Log checksum 926A6F49F7D706A206B14F12EC2E2AB80ADAB2A04BB81CDD97897ECFCF33519A ====

[CUETools log; Date: 06.09.2021 14:10:38; Version: 2.1.4]
[CTDB TOCID: hId.p1fK6YzMlfa9skosOsepUbk-] found.
Track | CTDB Status
1 | (21/21) Accurately ripped
2 | (21/21) Accurately ripped
3 | (21/21) Accurately ripped
4 | (21/21) Accurately ripped
[AccurateRip ID: 0007eb3b-00223ec4-2b0dcf04] found.
Track [ CRC | V2 ] Status
01 [a9f96cb8|5beffaf8] (0+0/6) No match
02 [e2123e43|0f42f906] (0+0/6) No match
03 [e18f203f|bc36e281] (0+0/6) No match
04 [f5f32a05|8192dd2e] (0+0/6) No match
Offsetted by -12:
01 [41c90d7f] (0/6) No match (V2 was not tested)
02 [841f811b] (0/6) No match (V2 was not tested)
03 [d7421026] (0/6) No match (V2 was not tested)
04 [d8c6a2fc] (0/6) No match (V2 was not tested)

Track Peak [ CRC32 ] [W/O NULL] [ LOG ]
– 97,7 [ADCDACA5] [1BF27194]
01 97,7 [BD446A25] [F0FB83CB] CRC32
02 97,7 [01C42384] [1412A303] CRC32
03 97,7 [E308C837] [6A446A08] CRC32
04 97,7 [C2276B77] [421C7EA4] CRC32

Exact Audio Copy V1.3 from 2. September 2016

EAC extraction logfile from 1. September 2021, 16:20

Charles Mingus / Mingus at Carnegie Hall

Used drive : PLEXTOR DVDR PX-716A Adapter: 1 ID: 1

Read mode : Secure
Utilize accurate stream : Yes
Defeat audio cache : Yes
Make use of C2 pointers : No

Read offset correction : 30
Overread into Lead-In and Lead-Out : No
Fill up missing offset samples with silence : Yes
Delete leading and trailing silent blocks : No
Null samples used in CRC calculations : Yes
Used interface : Native Win32 interface for Win NT & 2000
Gap handling : Appended to previous track

Used output format : User Defined Encoder
Selected bitrate : 768 kBit/s
Quality : High
Add ID3 tag : No
Command line compressor : C:\Program Files (x86)\Exact Audio Copy\FLAC\FLAC.EXE
Additional command line options : -6 -V -T "ARTIST=%artist%" -T "TITLE=%title%" -T "ALBUM=%albumtitle%" -T "DATE=%year%" -T "TRACKNUMBER=%tracknr%" -T "GENRE=%genre%" -T "COMMENT=%comment%" -T "BAND=%albuminterpret%" -T "ALBUMARTIST=%albuminterpret%" -T "COMPOSER=%composer%" %haslyrics%–tag-from-file=LYRICS="%lyricsfile%"%haslyrics% -T "DISCNUMBER=%cdnumber%" -T "TOTALDISCS=%totalcds%" -T "TOTALTRACKS=%numtracks%" %hascover%–picture="%coverfile%"%hascover% %source% -o %dest%


TOC of the extracted CD

Track | Start | Length | Start sector | End sector
––––––––––––––––––––––––––––-
1 | 0:00.00 | 18:39.03 | 0 | 83927
2 | 18:39.03 | 22:32.72 | 83928 | 185399
3 | 41:12.00 | 24:41.61 | 185400 | 296535


Track 1

Filename C:\EAC\Charles Mingus - 2021 - Mingus at Carnegie Hall\CD 2\01 - Charles Mingus - Big Alice.wav

Pre-gap length 0:00:02.00

Peak level 97.7 %
Extraction speed 10.4 X
Track quality 100.0 %
Test CRC A04696DD
Copy CRC A04696DD
Cannot be verified as accurate (confidence 1) [40285C6C], AccurateRip returned [FBF36017] (AR v2)
Copy OK

Track 2

Filename C:\EAC\Charles Mingus - 2021 - Mingus at Carnegie Hall\CD 2\02 - Charles Mingus - Perdido.wav

Peak level 97.7 %
Extraction speed 14.0 X
Track quality 100.0 %
Test CRC 5F073EDE
Copy CRC 5F073EDE
Cannot be verified as accurate (confidence 1) [8E351992], AccurateRip returned [F28E3F99] (AR v2)
Copy OK

Track 3

Filename C:\EAC\Charles Mingus - 2021 - Mingus at Carnegie Hall\CD 2\03 - Charles Mingus - C Jam Blues.wav

Peak level 97.7 %
Extraction speed 17.1 X
Track quality 100.0 %
Test CRC B242AC37
Copy CRC B242AC37
Cannot be verified as accurate (confidence 1) [F4FB8A36], AccurateRip returned [C9F48788] (AR v2)
Copy OK


No tracks could be verified as accurate
You may have a different pressing from the one(s) in the database

No errors occurred

End of status report

–– CUETools DB Plugin V2.1.6

[CTDB TOCID: 23Uz9Cf.18.EJc9PchlKqjwckZU-] found
Submit result: 23Uz9Cf.18.EJc9PchlKqjwckZU- has been confirmed
Track | CTDB Status
1 | (19/19) Accurately ripped
2 | (19/19) Accurately ripped
3 | (19/19) Accurately ripped


==== Log checksum 6066948D94414AA020537812764E76F036425A913C1DA02EC77919154D74D13B ====

[CUETools log; Date: 06.09.2021 14:10:58; Version: 2.1.4]
[CTDB TOCID: 23Uz9Cf.18.EJc9PchlKqjwckZU-] found.
Track | CTDB Status
1 | (20/20) Accurately ripped
2 | (20/20) Accurately ripped
3 | (20/20) Accurately ripped
[AccurateRip ID: 0008a268-001d25b9-180f7103] found.
Track [ CRC | V2 ] Status
01 [dc5a807d|40285c6c] (0+0/6) No match
02 [3eefe631|8e351992] (0+0/6) No match
03 [6f2d8da1|f4fb8a36] (0+0/6) No match
Offsetted by -12:
01 [981360c2] (0/6) No match (V2 was not tested)
02 [9fe77008] (0/6) No match (V2 was not tested)
03 [38b23f0f] (0/6) No match (V2 was not tested)

Track Peak [ CRC32 ] [W/O NULL] [ LOG ]
– 97,7 [1F8291FE] [C3AE4280]
01 97,7 [A04696DD] [44779486] CRC32
02 97,7 [5F073EDE] [3D50CFBC] CRC32
03 97,7 [B242AC37] [F7B6E23C] CRC32

Thanks to mameuser