Tags
Language
Tags
June 2024
Su Mo Tu We Th Fr Sa
26 27 28 29 30 31 1
2 3 4 5 6 7 8
9 10 11 12 13 14 15
16 17 18 19 20 21 22
23 24 25 26 27 28 29
30 1 2 3 4 5 6

Charles Mingus - Me, Myself an Eye (1979) [Reissue 2002]

Posted By: gribovar
Charles Mingus - Me, Myself an Eye (1979) [Reissue 2002]

Charles Mingus - Me, Myself an Eye (1979) [Reissue 2002]
EAC Rip | APE (image+.cue+log) - 325 MB | Covers - 98 MB
Genre: Jazz | RAR 3% Rec. | Label: Atlantic (75679 3068-2)

Charles Mingus did not perform on the final sessions he made for Atlantic toward the end of his life. Too ill with ALS to pick up his bass, he nonetheless was a powerful presence in the studio. The arrangements and orchestrations were realized by trumpeter Jack Walrath based on Mingus's tapes and piano sketches. The huge band can get a bit unwieldy, and the arrangements, which feature a solo from Larry Coryell, do tend to pander a bit to the fusion audience. In spite of these drawbacks, the half-hour "Three Worlds of Drums" is great, overdone though it may be.
Tracklist:
01. Three Worlds of Drums
02. Devil Woman
03. Wednesday Night Prayer Meeting
04. Carolyn "Keki" Mingus

Total time: 57:25

Exact Audio Copy V0.99 prebeta 3 from 28. July 2007

Отчёт EAC об извлечении, выполненном 21. апреля 2008, 19:59

Charles Mingus / Me, Myself an Eye

Дисковод: Optiarc DVD RW AD-7203A Adapter: 0 ID: 1

Режим чтения : Достоверность
Использование точного потока : Да
Отключение кэша аудио : Да
Использование указателей C2 : Нет

Коррекция смещения при чтении : 48
Способность читать области Lead-in и Lead-out : Нет
Заполнение пропущенных сэмплов тишиной : Да
Удаление блоков с тишиной в начале и конце : Нет
При вычислениях CRC использовались нулевые сэмплы : Да
Интерфейс : Установленный внешний ASPI-интерфейс

Выходной формат : Monkey's Audio Lossless Encoder v3.99 DLL
Формат сэмплов : Normal Lossless Compression


TOC извлечённого CD

Трек | Старт | Длительность | Начальный сектор | Конечный сектор
––––––––––––––––––––––––––––––––––-
1 | 0:00.00 | 30:22.07 | 0 | 136656
2 | 30:22.07 | 9:25.40 | 136657 | 179071
3 | 39:47.47 | 9:51.10 | 179072 | 223406
4 | 49:38.57 | 7:46.08 | 223407 | 258364


Характеристики диапазона извлечения и сообщения об ошибках

Выбранный диапазон

Имя файла C:\Documents and Settings\1\Рабочий стол\Charles Mingus - Me, Myself an Eye.ape

Пиковый уровень 98.8 %
Качество диапазона 100.0 %
CRC теста DC52BEA7
CRC копии DC52BEA7
Копирование… OK

Ошибок не произошло


AccurateRip: сводка

Трек 1 точное извлечение (доверие 1) [9DB85862]
Трек 2 точное извлечение (доверие 1) [A69C60A1]
Трек 3 точное извлечение (доверие 1) [EE46BE58]
Трек 4 точное извлечение (доверие 1) [D177B8CB]

Все треки извлечены точно

Конец отчёта

[CUETools log; Date: 06.02.2019 23:01:11; Version: 2.1.4]
[CTDB TOCID: 6v17MkTKpPAh4Kbtcjl_eJ6peWw-] found.
Track | CTDB Status
1 | (12/12) Accurately ripped
2 | (12/12) Accurately ripped
3 | (12/12) Accurately ripped
4 | (12/12) Accurately ripped
[AccurateRip ID: 000c2b3d-002db710-3a0d7404] found.
Track [ CRC | V2 ] Status
01 [9db85862|a42f697d] (07+09/16) Accurately ripped
02 [a69c60a1|846d2522] (07+09/16) Accurately ripped
03 [ee46be58|4cd385f1] (07+09/16) Accurately ripped
04 [d177b8cb|693bf1cb] (07+09/16) Accurately ripped

Track Peak [ CRC32 ] [W/O NULL] [ LOG ]
– 98,8 [DC52BEA7] [B58E37FB] CRC32
01 98,8 [8F086C96] [536A9228]
02 94,6 [E7BCC229] [EB374926]
03 98,8 [9F733EDB] [723101AC]
04 83,9 [8DE0BDA0] [F1B21D9C]

Thanks to albert k

See also: