Tags
Language
Tags

Charles Mingus - Mingus Mingus Mingus Mingus Mingus (1963) [Reissue 2006] (Repost)

Posted By: gribovar
Charles Mingus - Mingus Mingus Mingus Mingus Mingus (1963) [Reissue 2006] (Repost)

Charles Mingus - Mingus Mingus Mingus Mingus Mingus (1963) [Reissue 2006]
EAC Rip | FLAC (image+.cue+log) - 303 MB | Covers (12 MB) included
Genre: Jazz | RAR 3% Rec. | Label: Verve/Impulse! (0602517036963)

Having completed what he (and many critics) regarded as his masterwork in The Black Saint and the Sinner Lady, Charles Mingus' next sessions for Impulse found him looking back over a long and fruitful career. Mingus, Mingus, Mingus, Mingus, Mingus is sort of a "greatest hits revisited" record, as the bassist revamps or tinkers with some of his best-known works. The titles are altered as well - "II B.S." is basically "Haitian Fight Song" (this is the version used in the late-'90s car commercial); "Theme for Lester Young" is "Goodbye Pork Pie Hat"; "Better Get Hit in Your Soul" adds a new ending, but just one letter to the title; "Hora Decubitus" is a growling overhaul of "E's Flat Ah's Flat Too"; and "I X Love" modifies "Nouroog," which was part of "Open Letter to Duke." There's also a cover of Duke Ellington's "Mood Indigo," leaving just one new composition, "Celia." Which naturally leads to the question: With the ostensible shortage of ideas, what exactly makes this a significant Mingus effort? The answer is that the 11-piece bands assembled here (slightly different for the two separate recording sessions) are among Mingus' finest, featuring some of the key personnel (Eric Dolphy, pianist Jaki Byard) that would make up the legendary quintet/sextet with which Mingus toured Europe in 1964. And they simply burn, blasting through versions that equal and often surpass the originals - which is, of course, no small feat. This was Mingus' last major statement for quite some time, and aside from a solo piano album and a series of live recordings from the 1964 tour, also his last album until 1970. It closes out the most productive and significant chapter of his career, and one of the most fertile, inventive hot streaks of any composer in jazz history.
Tracklist:
01. II B.S.
02. I X Love
03. Celia
04. Mood Indigo
05. Better Get Hit in Yo' Soul
06. Theme for Lester Young
07. Hora Decubitus
08. Freedom

Total time: 45:47

Exact Audio Copy V0.99 prebeta 5 from 4. May 2009

EAC extraction logfile from 15. November 2010, 12:50

Charles Mingus / Mingus Mingus Mingus Mingus Mingus

Used drive : Optiarc DVD RW AD-7240S Adapter: 0 ID: 1

Read mode : Secure
Utilize accurate stream : Yes
Defeat audio cache : Yes
Make use of C2 pointers : No

Read offset correction : 48
Overread into Lead-In and Lead-Out : No
Fill up missing offset samples with silence : Yes
Delete leading and trailing silent blocks : No
Null samples used in CRC calculations : Yes
Used interface : Native Win32 interface for Win NT & 2000

Used output format : User Defined Encoder
Selected bitrate : 768 kBit/s
Quality : High
Add ID3 tag : No
Command line compressor : E:\Audio\Exact Audio Copy\Flac\flac.exe
Additional command line options : -6 -V -T "ARTIST=%a" -T "TITLE=%t" -T "ALBUM=%g" -T "DATE=%y" -T "TRACKNUMBER=%n" -T "GENRE=%m" -T "COMMENT=%e" %s -o %d


TOC of the extracted CD

Track | Start | Length | Start sector | End sector
––––––––––––––––––––––––––––-
1 | 0:00.32 | 4:49.30 | 32 | 21736
2 | 4:49.62 | 7:41.05 | 21737 | 56316
3 | 12:30.67 | 6:14.63 | 56317 | 84429
4 | 18:45.55 | 4:45.72 | 84430 | 105876
5 | 23:31.52 | 6:30.65 | 105877 | 135191
6 | 30:02.42 | 5:51.03 | 135192 | 161519
7 | 35:53.45 | 4:43.22 | 161520 | 182766
8 | 40:36.67 | 5:10.10 | 182767 | 206026


Range status and errors

Selected range

Filename H:\_GARAGE\Charles Mingus - Mingus Mingus Mingus Mingus Mingus\Charles Mingus - Mingus Mingus Mingus Mingus Mingus.wav

Peak level 99.5 %
Range quality 100.0 %
Copy CRC 3FFC57D1
Copy OK

No errors occurred


AccurateRip summary

Track 1 accurately ripped (confidence 8) [1F8747D9]
Track 2 accurately ripped (confidence 8) [EFD2B63E]
Track 3 accurately ripped (confidence 8) [84A2905C]
Track 4 accurately ripped (confidence 8) [12B9932B]
Track 5 accurately ripped (confidence 8) [60EB5503]
Track 6 accurately ripped (confidence 8) [3113854A]
Track 7 accurately ripped (confidence 8) [FF95F8FA]
Track 8 accurately ripped (confidence 7) [574318D1]

All tracks accurately ripped

End of status report

[CUETools log; Date: 20.03.2018 1:59:00; Version: 2.1.4]
Pregap length 00:00:32.
[CTDB TOCID: qNaarXAPz9i0rimMT13d.bY9bro-] found.
Track | CTDB Status
1 | (124/124) Accurately ripped
2 | (124/124) Accurately ripped
3 | (124/124) Accurately ripped
4 | (124/124) Accurately ripped
5 | (124/124) Accurately ripped
6 | (124/124) Accurately ripped
7 | (124/124) Accurately ripped
8 | (123/124) Accurately ripped
[AccurateRip ID: 000e8e2b-0060b4c5-5b0abb08] found.
Track [ CRC | V2 ] Status
01 [1f8747d9|a0e2b09f] (011+013/165) Accurately ripped
02 [efd2b63e|52371ef2] (011+013/163) Accurately ripped
03 [84a2905c|8c18ae35] (011+013/162) Accurately ripped
04 [12b9932b|6bda9a59] (011+013/163) Accurately ripped
05 [60eb5503|39fcbc8c] (011+013/161) Accurately ripped
06 [3113854a|a60db100] (011+013/159) Accurately ripped
07 [ff95f8fa|60e5d929] (011+013/160) Accurately ripped
08 [574318d1|86fe3f5d] (010+013/162) Accurately ripped
Offsetted by 640:
01 [253433d9] (004/165) Accurately ripped
02 [7056053e] (004/163) Accurately ripped
03 [b6fe995c] (004/162) Accurately ripped
04 [cfdf562b] (004/163) Accurately ripped
05 [3e171b03] (003/161) Accurately ripped
06 [dcf898ca] (002/159) Accurately ripped
07 [115ca4fa] (004/160) Accurately ripped
08 [57f5a429] (004/162) Accurately ripped
Offsetted by 664:
01 [a89de319] (031/165) Accurately ripped
02 [385af1ce] (029/163) Accurately ripped
03 [cf48734c] (028/162) Accurately ripped
04 [6d5d8d7b] (028/163) Accurately ripped
05 [c32f25a3] (029/161) Accurately ripped
06 [70379652] (027/159) Accurately ripped
07 [4ed4183a] (028/160) Accurately ripped
08 [d8d104c8] (029/162) Accurately ripped
Offsetted by 1321:
01 [b60b0091] (030/165) Accurately ripped
02 [dbe1bdb4] (030/163) Accurately ripped
03 [682e2156] (030/162) Accurately ripped
04 [a4bcb7a9] (031/163) Accurately ripped
05 [9ea1487f] (029/161) Accurately ripped
06 [0f13f2bd] (029/159) Accurately ripped
07 [617a0b32] (029/160) Accurately ripped
08 [b964494e] (029/162) Accurately ripped

Track Peak [ CRC32 ] [W/O NULL] [ LOG ]
– 99,5 [3FFC57D1] [68D774EF] CRC32
01 91,3 [4684DEDB] [EFC3FA38]
02 84,1 [3E75B6EF] [9D726A7A]
03 82,0 [083E40BF] [D8A1439B]
04 86,6 [9AD2D4ED] [71A3F639]
05 92,1 [D99E42AD] [B5379432]
06 93,4 [01BE52F3] [17AD1C89]
07 99,5 [106F1847] [136EE92F]
08 96,8 [979AD059] [5341F978]

Thanks to sardanapale