Tags
Language
Tags
June 2024
Su Mo Tu We Th Fr Sa
26 27 28 29 30 31 1
2 3 4 5 6 7 8
9 10 11 12 13 14 15
16 17 18 19 20 21 22
23 24 25 26 27 28 29
30 1 2 3 4 5 6

Charles Mingus - Mingus Mingus Mingus Mingus Mingus (1963) [Analogue Productions, 2010] (Repost)

Posted By: gribovar
Charles Mingus - Mingus Mingus Mingus Mingus Mingus (1963) [Analogue Productions, 2010] (Repost)

Charles Mingus - Mingus Mingus Mingus Mingus Mingus (1963) [Analogue Productions, 2010]
EAC Rip | FLAC (tracks+.cue+log) - 246 MB | MP3 CBR 320 kbps (LAME 3.93) - 95 MB | Covers - 33 MB
Genre: Jazz | RAR 3% Rec. | Label: Analogue Productions (CIPJ 54 SA)

Having completed what he (and many critics) regarded as his masterwork in The Black Saint and the Sinner Lady, Charles Mingus' next sessions for Impulse found him looking back over a long and fruitful career. Mingus Mingus Mingus Mingus Mingus is sort of a "greatest hits revisited" record, as the bassist revamps or tinkers with some of his best-known works. The titles are altered as well - "II B.S." is basically "Haitian Fight Song" (this is the version used in the late-'90s car commercial); "Theme for Lester Young" is "Goodbye Pork Pie Hat"; "Better Get Hit in Your Soul" adds a new ending, but just one letter to the title; "Hora Decubitus" is a growling overhaul of "E's Flat Ah's Flat Too"; and "I X Love" modifies "Nouroog," which was part of "Open Letter to Duke." There's also a cover of Duke Ellington's "Mood Indigo," leaving just one new composition, "Celia." Which naturally leads to the question: With the ostensible shortage of ideas, what exactly makes this a significant Mingus effort? The answer is that the 11-piece bands assembled here (slightly different for the two separate recording sessions) are among Mingus' finest, featuring some of the key personnel (Eric Dolphy, pianist Jaki Byard) that would make up the legendary quintet/sextet with which Mingus toured Europe in 1964. And they simply burn, blasting through versions that equal and often surpass the originals - which is, of course, no small feat. This was Mingus' last major statement for quite some time, and aside from a solo piano album and a series of live recordings from the 1964 tour, also his last album until 1970. It closes out the most productive and significant chapter of his career, and one of the most fertile, inventive hot streaks of any composer in jazz history.
Tracklist:
01. Ii B.S.
02. I X Love
03. Celia
04. Mood Indigo
05. Better Get Hit In Yo' Soul
06. Theme For Lester Young
07. Hora Decubitus

Total time: 40:31

Exact Audio Copy V1.0 beta 1 from 15. November 2010

EAC extraction logfile from 10. March 2011, 14:07

Charles Mingus / Mingus Mingus Mingus Mingus Mingus

Used drive : HL-DT-STDVDRAM GP08NU6B Adapter: 1 ID: 0

Read mode : Secure
Utilize accurate stream : Yes
Defeat audio cache : Yes
Make use of C2 pointers : No

Read offset correction : 103
Overread into Lead-In and Lead-Out : No
Fill up missing offset samples with silence : Yes
Delete leading and trailing silent blocks : No
Null samples used in CRC calculations : Yes
Used interface : Native Win32 interface for Win NT & 2000
Gap handling : Appended to previous track

Used output format : User Defined Encoder
Selected bitrate : 128 kBit/s
Quality : High
Add ID3 tag : No
Command line compressor : C:\Program Files\FLAC\flac.exe
Additional command line options : -8 -V -T "ARTIST=%a" -T "TITLE=%t" -T "ALBUM=%g" -T "DATE=%y" -T "TRACKNUMBER=%n" -T "TOTALTRACKS=%x" -T "GENRE=%m" -T "ALBUM ARTIST=%v" -T "ALBUMARTIST=%v" -T "COMMENT=L2Bits, EAC V1.0 beta 1, Secure Mode, Test & Copy, Acc


TOC of the extracted CD

Track | Start | Length | Start sector | End sector
––––––––––––––––––––––––––––-
1 | 0:00.69 | 4:47.39 | 69 | 21632
2 | 4:48.33 | 7:37.43 | 21633 | 55950
3 | 12:26.01 | 6:12.28 | 55951 | 83878
4 | 18:38.29 | 4:43.25 | 83879 | 105128
5 | 23:21.54 | 6:29.09 | 105129 | 134312
6 | 29:50.63 | 5:53.16 | 134313 | 160803
7 | 35:44.04 | 4:47.48 | 160804 | 182376


Track 1

Filename D:\Bezz Rip\01 - Mingus Mingus Mingus Mingus Mingus - Ii B.S..wav

Pre-gap length 0:00:02.69

Peak level 88.9 %
Extraction speed 1.3 X
Track quality 100.0 %
Test CRC B9C282E7
Copy CRC B9C282E7
Track not present in AccurateRip database
Copy OK

Track 2

Filename D:\Bezz Rip\02 - Mingus Mingus Mingus Mingus Mingus - I X Love.wav

Pre-gap length 0:00:00.19

Peak level 67.2 %
Extraction speed 1.5 X
Track quality 99.9 %
Test CRC F4B240F2
Copy CRC F4B240F2
Track not present in AccurateRip database
Copy OK

Track 3

Filename D:\Bezz Rip\03 - Mingus Mingus Mingus Mingus Mingus - Celia.wav

Pre-gap length 0:00:00.33

Peak level 76.8 %
Extraction speed 1.7 X
Track quality 100.0 %
Test CRC 1EBB4C21
Copy CRC 1EBB4C21
Track not present in AccurateRip database
Copy OK

Track 4

Filename D:\Bezz Rip\04 - Mingus Mingus Mingus Mingus Mingus - Mood Indigo.wav

Pre-gap length 0:00:00.33

Peak level 66.2 %
Extraction speed 1.8 X
Track quality 100.0 %
Test CRC 2BF0C4B0
Copy CRC 2BF0C4B0
Track not present in AccurateRip database
Copy OK

Track 5

Filename D:\Bezz Rip\05 - Mingus Mingus Mingus Mingus Mingus - Better Get Hit in Yo' Soul.wav

Pre-gap length 0:00:00.33

Peak level 96.5 %
Extraction speed 2.0 X
Track quality 100.0 %
Test CRC CEB6726C
Copy CRC CEB6726C
Track not present in AccurateRip database
Copy OK

Track 6

Filename D:\Bezz Rip\06 - Mingus Mingus Mingus Mingus Mingus - Theme for Lester Young.wav

Pre-gap length 0:00:00.33

Peak level 84.5 %
Extraction speed 2.1 X
Track quality 100.0 %
Test CRC E232A80A
Copy CRC E232A80A
Track not present in AccurateRip database
Copy OK

Track 7

Filename D:\Bezz Rip\07 - Mingus Mingus Mingus Mingus Mingus - Hora Decubitus.wav

Pre-gap length 0:00:00.24

Peak level 88.1 %
Extraction speed 2.2 X
Track quality 100.0 %
Test CRC 24C630FD
Copy CRC 24C630FD
Track not present in AccurateRip database
Copy OK


None of the tracks are present in the AccurateRip database

No errors occurred

End of status report

==== Log checksum D22EAA346E10D07D10C420C6DB5EBB4A0915BEF3585DB69FBF6E5281729C7C0C ====

[CUETools log; Date: 13.06.2019 0:37:14; Version: 2.1.4]
Pregap length 00:00:69.
[CTDB TOCID: ENgDHBqGpZVuEpZWi0npiSwdyVw-] found.
Track | CTDB Status
1 | (9/9) Accurately ripped
2 | (9/9) Accurately ripped
3 | (9/9) Accurately ripped
4 | (9/9) Accurately ripped
5 | (9/9) Accurately ripped
6 | (9/9) Accurately ripped
7 | (9/9) Accurately ripped
[AccurateRip ID: 000b5adb-00441917-4c097f07] found.
Track [ CRC | V2 ] Status
01 [7ecc0322|7eea61c4] (10+14/24) Accurately ripped
02 [8ced1919|e30f82ea] (10+14/24) Accurately ripped
03 [820944c5|cf32161a] (10+14/24) Accurately ripped
04 [fa0c334d|eccd72d0] (11+14/25) Accurately ripped
05 [e97601bf|6faeb101] (10+14/24) Accurately ripped
06 [dcc4d05d|4a3a0043] (10+14/24) Accurately ripped
07 [11471b06|3b96fed7] (10+14/24) Accurately ripped

Track Peak [ CRC32 ] [W/O NULL] [ LOG ]
– 96,5 [B83864A6] [596359FE]
01 88,9 [B9C282E7] [6EAD3A5C] CRC32
02 67,2 [F4B240F2] [97C39FA9] CRC32
03 76,8 [1EBB4C21] [8D8A6D25] CRC32
04 66,2 [2BF0C4B0] [0423CE3A] CRC32
05 96,5 [CEB6726C] [7792DB35] CRC32
06 84,5 [E232A80A] [7F21FA2C] CRC32
07 88,1 [24C630FD] [3EEAE9A7] CRC32

Thanks to Bezz