Tags
Language
Tags

Charles Mingus - Right Now: Live At The Jazz Workshop (1966) [Reissue 1990]

Posted By: gribovar
Charles Mingus - Right Now: Live At The Jazz Workshop (1966) [Reissue 1990]

Charles Mingus - Right Now: Live At the Jazz Workshop (1966) [Reissue 1990]
EAC Rip | APE (image+.cue+log) - 282 MB | Covers - 83 MB
Genre: Jazz | RAR 3% Rec. | Label: Debut/Fantasy (00025218623728)

Soon after Charles Mingus finished touring Europe with his band (the unit that featured Eric Dolphy), he recorded this CD, performed live at The Jazz Workshop in San Francisco. With tenor-saxophonist Clifford Jordan and drummer Dannie Richmond still in the group but Jane Getz replacing pianist Jaki Byard and altoist John Handy filling in for Dolphy on one song, the band performs excellent versions of "Meditations on Integration" and "New Fables," both of which are over 23 minutes long. Although not up to the passionate level of the Mingus-Dolphy Quintet, this underrated unit holds its own.
Tracklist:
01. New Fables Mingus
02. Meditation (For a Pair of Wire Cutters)

Total time: 47:00

Exact Audio Copy V0.99 prebeta 3 from 28. July 2007

Отчёт EAC об извлечении, выполненном 12. апреля 2008, 18:46

Charles Mingus / Right Now : Live At the Jazz Workshop

Дисковод: Optiarc DVD RW AD-7203A Adapter: 0 ID: 1

Режим чтения : Достоверность
Использование точного потока : Да
Отключение кэша аудио : Да
Использование указателей C2 : Нет

Коррекция смещения при чтении : 48
Способность читать области Lead-in и Lead-out : Нет
Заполнение пропущенных сэмплов тишиной : Да
Удаление блоков с тишиной в начале и конце : Нет
При вычислениях CRC использовались нулевые сэмплы : Да
Интерфейс : Установленный внешний ASPI-интерфейс

Выходной формат : Monkey's Audio Lossless Encoder v3.99 DLL
Формат сэмплов : Normal Lossless Compression


TOC извлечённого CD

Трек | Старт | Длительность | Начальный сектор | Конечный сектор
––––––––––––––––––––––––––––––––––-
1 | 0:00.00 | 23:17.05 | 0 | 104779
2 | 23:17.05 | 23:42.57 | 104780 | 211486


Характеристики диапазона извлечения и сообщения об ошибках

Выбранный диапазон

Имя файла C:\Documents and Settings\1\Рабочий стол\Charles Mingus - Right Now Live At the Jazz Workshop.ape

Пиковый уровень 96.1 %
Качество диапазона 100.0 %
CRC теста 4FDB2A08
CRC копии 4FDB2A08
Копирование… OK

Ошибок не произошло


AccurateRip: сводка

Трек 1 нет в базе данных
Трек 2 нет в базе данных

Ни одного трека нет в базе AccurateRip

Конец отчёта

[CUETools log; Date: 08.02.2019 1:01:43; Version: 2.1.4]
[CTDB TOCID: QyBuxk7GYBbBIPzVEEUKgrYe9Eo-] found.
Track | CTDB Status
1 | (18/18) Accurately ripped
2 | (16/18) Accurately ripped
[AccurateRip ID: 0004d36b-000ce0f6-180b0302] found.
Track [ CRC | V2 ] Status
01 [1dbcba34|36c0f205] (00+03/23) Accurately ripped
02 [34393b8b|738a3f63] (00+03/23) Accurately ripped
Offsetted by 560:
01 [781932ce] (02/23) Accurately ripped
02 [42cac8dc] (02/23) Accurately ripped
Offsetted by 664:
01 [e04945fc] (06/23) Accurately ripped
02 [de1caaae] (06/23) Accurately ripped
Offsetted by 634:
01 [915559d9] (00/23) No match (V2 was not tested)
02 [6bc5457a] (00/23) No match (V2 was not tested)

Track Peak [ CRC32 ] [W/O NULL] [ LOG ]
– 96,1 [4FDB2A08] [D733F051] CRC32
01 96,1 [CE7A65A1] [4DD680A6]
02 87,1 [90FFA7A9] [14F40105]

Thanks to albert k

See also: