Tags
Language
Tags

Charles Mingus - The Charles Mingus Quintet + Max Roach (1964) [Reissue 1990]

Posted By: gribovar
Charles Mingus - The Charles Mingus Quintet + Max Roach (1964) [Reissue 1990]

Charles Mingus - The Charles Mingus Quintet + Max Roach (1964) [Reissue 1990]
EAC Rip | FLAC (tracks+.cue+log) - 169 MB | Covers (4 MB) included
Genre: Jazz | RAR 3% Rec. | Label: Original Jazz Classics/Fantasy (OJC-440-2, F-6009)

The Charles Mingus Quintet & Max Roach is an album by Charles Mingus, recorded at the Café Bohemia in December 1955 and released in 1964. Further recordings from the concert were released under the title Mingus at the Bohemia. The Mingus/Roach/Mal Waldron dialogs overcome the ordinary stylings of Eddie Bert and George Barrow.
Tracklist:
01. A Foggy Day
02. Drums
03. Haitian Fight Song
04. Lady Bird
05. I'll Remember April
06. Love Chant

Total time: 43:20

Exact Audio Copy V1.0 beta 2 from 29. April 2011

EAC extraction logfile from 9. June 2011, 9:42

The Charles Mingus Quintet; Max Roach / The Charles Mingus Quintet + Max Roach

Used drive : HP DVD Writer 1140d Adapter: 2 ID: 0

Read mode : Secure
Utilize accurate stream : Yes
Defeat audio cache : Yes
Make use of C2 pointers : No

Read offset correction : 6
Overread into Lead-In and Lead-Out : No
Fill up missing offset samples with silence : Yes
Delete leading and trailing silent blocks : No
Null samples used in CRC calculations : Yes
Used interface : Native Win32 interface for Win NT & 2000
Gap handling : Appended to previous track

Used output format : User Defined Encoder
Selected bitrate : 1024 kBit/s
Quality : High
Add ID3 tag : No
Command line compressor : C:\Program Files (x86)\Exact Audio Copy\Flac\flac.exe
Additional command line options : -8 -V -T "ARTIST=%artist%" -T "TITLE=%title%" -T "ALBUM=%albumtitle%" -T "DATE=%year%" -T "TRACKNUMBER=%tracknr%" -T "GENRE=%genre%" -T "PERFORMER=%albuminterpret%" -T "COMPOSER=%composer%" %haslyrics%–tag-from-file=LYRICS


TOC of the extracted CD

Track | Start | Length | Start sector | End sector
––––––––––––––––––––––––––––-
1 | 0:00.00 | 5:36.62 | 0 | 25261
2 | 5:36.62 | 5:38.20 | 25262 | 50631
3 | 11:15.07 | 5:27.23 | 50632 | 75179
4 | 16:42.30 | 5:58.05 | 75180 | 102034
5 | 22:40.35 | 13:13.62 | 102035 | 161571
6 | 35:54.22 | 7:26.05 | 161572 | 195026


Track 1

Filename C:\EAC\The Charles Mingus Quartet - Plus Max Roach (1990)\01 - A foggy day.wav

Pre-gap length 0:00:02.00

Peak level 65.8 %
Extraction speed 4.7 X
Track quality 100.0 %
Test CRC 1F36AA63
Copy CRC 1F36AA63
Accurately ripped (confidence 3) [27F6FF81] (AR v1)
Copy OK

Track 2

Filename C:\EAC\The Charles Mingus Quartet - Plus Max Roach (1990)\02 - Drums.wav

Pre-gap length 0:00:03.36

Peak level 62.9 %
Extraction speed 5.3 X
Track quality 100.0 %
Test CRC 59A98442
Copy CRC 59A98442
Accurately ripped (confidence 3) [C4C11F1A] (AR v1)
Copy OK

Track 3

Filename C:\EAC\The Charles Mingus Quartet - Plus Max Roach (1990)\03 - Haitian fight song.wav

Pre-gap length 0:00:03.16

Peak level 46.1 %
Extraction speed 5.1 X
Track quality 99.9 %
Test CRC 1A9F2F5B
Copy CRC 1A9F2F5B
Accurately ripped (confidence 3) [37A803A2] (AR v1)
Copy OK

Track 4

Filename C:\EAC\The Charles Mingus Quartet - Plus Max Roach (1990)\04 - Lady bird.wav

Pre-gap length 0:00:03.00

Peak level 61.2 %
Extraction speed 6.5 X
Track quality 100.0 %
Test CRC 84BDA07A
Copy CRC 84BDA07A
Accurately ripped (confidence 3) [36073D42] (AR v1)
Copy OK

Track 5

Filename C:\EAC\The Charles Mingus Quartet - Plus Max Roach (1990)\05 - I'll remember april.wav

Pre-gap length 0:00:02.00

Peak level 66.6 %
Extraction speed 7.2 X
Track quality 99.9 %
Test CRC D38DEDBE
Copy CRC D38DEDBE
Accurately ripped (confidence 3) [2A83425B] (AR v1)
Copy OK

Track 6

Filename C:\EAC\The Charles Mingus Quartet - Plus Max Roach (1990)\06 - Love chant.wav

Pre-gap length 0:00:02.36

Peak level 63.8 %
Extraction speed 8.2 X
Track quality 100.0 %
Test CRC E9AA2657
Copy CRC E9AA2657
Accurately ripped (confidence 3) [AEF46ED7] (AR v1)
Copy OK


All tracks accurately ripped

No errors occurred

End of status report

==== Log checksum B437F967E421C41AB729121B1F7E19458459E9FD8914003849E85A02E21D3384 ====

[CUETools log; Date: 28.05.2019 2:02:00; Version: 2.1.4]
[CTDB TOCID: FmL7E_FgUuFpFH7PKnn50.I6VXs-] found.
Track | CTDB Status
1 | ( 5/40) Accurately ripped, or (28/40) differs in 45 samples @01:06:12-01:06:15
2 | (35/40) Accurately ripped
3 | (35/40) Accurately ripped
4 | (35/40) Accurately ripped
5 | (34/40) Accurately ripped
6 | (35/40) Accurately ripped
[AccurateRip ID: 00094dac-003315e1-430a2806] found.
Track [ CRC | V2 ] Status
01 [27f6ff81|0c2fccc5] (03+06/36) Accurately ripped
02 [c4c11f1a|38520bb2] (03+06/34) Accurately ripped
03 [37a803a2|7c8c2601] (03+06/36) Accurately ripped
04 [36073d42|417c279e] (03+06/36) Accurately ripped
05 [2a83425b|6d8bfd8f] (03+06/35) Accurately ripped
06 [aef46ed7|e732a75f] (03+05/36) Accurately ripped
Offsetted by -1105:
01 [a033502e] (00/36) No match (V2 was not tested)
02 [fbac741f] (04/34) Accurately ripped
03 [807e1d7c] (05/36) Accurately ripped
04 [b2dafdc9] (05/36) Accurately ripped
05 [33ebb1df] (05/35) Accurately ripped
06 [ac7447d4] (05/36) Accurately ripped
Offsetted by -426:
01 [3552f7a1] (00/36) No match (V2 was not tested)
02 [1824aa26] (05/34) Accurately ripped
03 [dc4bed36] (05/36) Accurately ripped
04 [207e8c5d] (05/36) Accurately ripped
05 [65ee574e] (05/35) Accurately ripped
06 [e9b054d2] (06/36) Accurately ripped

Track Peak [ CRC32 ] [W/O NULL] [ LOG ]
– 66,6 [1C82D102] [A531D186]
01 65,8 [1F36AA63] [D1DE900C] CRC32
02 62,9 [59A98442] [05D61EAC] CRC32
03 46,1 [1A9F2F5B] [24418A3C] CRC32
04 61,2 [84BDA07A] [D7160871] CRC32
05 66,6 [D38DEDBE] [C87D4559] CRC32
06 63,8 [E9AA2657] [34E48D22] CRC32

Thanks to the original releaser

See also: