Tags
Language
Tags

Charles Mingus - Tonight At Noon (1964) [Japanese Edition 2007] (Repost)

Posted By: gribovar
Charles Mingus - Tonight At Noon (1964) [Japanese Edition 2007] (Repost)

Charles Mingus - Tonight At Noon (1964) [Japanese Edition 2007]
EAC Rip | FLAC (tracks+.cue+log) - 235 MB | MP3 CBR 320 kbps (LAME 3.93) - 90 MB | Covers - 58 MB
Genre: Jazz | RAR 3% Rec. | Label: Warner Music Japan (WPCR-25147)

Tonight at Noon is, essentially, a compilation album - although not in the usual sense. There are two distinct sessions that make up its contents: a 1957 date with Jimmy Knepper on trombone, drummer Dannie Richmond, saxophonist Shafi Hadi, and pianist Wade Legge, and a 1960 session with Booker Ervin, Roland Kirk on saxes, Knepper, bassist Doug Watkins, Mingus on piano, and Richmond. The feel of the two sets is different to be sure, but this is far from throwaway material; the tunes here are actually studio outtakes from the recordings for The Clown and Oh Yeah. While the former session features Mingus going for the blues via European harmonics and melodic approaches with hard bop tempos (particularly on the title track), the latter session with its nocturnal elegance and spatial irregularities comes off more as some kind of exercise in vanguard Ellington with sophisticated harmonies that give way to languid marches and gospel-tinged blues. Kirk and Ervin are particularly suited to one another, because they both swing hard and reach for the fences. Mingus' pianism is deeply rooted in blues, and that sense of pace and easiness informs these tracks, particularly "'Old' Blue for Walt's Torin." Hints of the material Mingus would record for Columbia on Ah Um are in these compositions. The most beautiful piece is from the 1957 session and closes the album: "Passions of a Woman Loved" is a nearly ten-minute workout that feels like an Ellington suite. Despite the fact that this is an assembled album, it holds plenty of magic nonetheless.
Tracklist:
01. Tonight At Noon
02. Invisible Lady
03. 'Old' Blues For Walt's Torin
04. Peggy's Blue Skylight
05. Passions Of A Woman Loved

Total time: 38:15

Exact Audio Copy V0.99 prebeta 5 from 4. May 2009

EAC extraction logfile from 9. April 2010, 1:58

Charles Mingus / Tonight at Noon (Japan / 24-bit)

Used drive : PLEXTOR CD-R PX-W4012S Adapter: 5 ID: 4

Read mode : Secure
Utilize accurate stream : Yes
Defeat audio cache : Yes
Make use of C2 pointers : No

Read offset correction : 98
Overread into Lead-In and Lead-Out : Yes
Fill up missing offset samples with silence : Yes
Delete leading and trailing silent blocks : No
Null samples used in CRC calculations : Yes
Used interface : Native Win32 interface for Win NT & 2000
Gap handling : Appended to previous track

Used output format : User Defined Encoder
Selected bitrate : 896 kBit/s
Quality : High
Add ID3 tag : Yes
Command line compressor : X:\Program Files (x86)\Exact Audio Copy\Flac\flac.exe
Additional command line options : -8 -V -T "artist=%a" -T "title=%t" -T "album=%g" -T "date=%y" -T "tracknumber=%n" -T "genre=%m" -T "comment=EAC 0.99 pb5 / FLAC 1.2.1b q8 / Gap Detection Method A (Secure)" %s


TOC of the extracted CD

Track | Start | Length | Start sector | End sector
––––––––––––––––––––––––––––-
1 | 0:00.00 | 6:00.03 | 0 | 27002
2 | 6:00.03 | 4:50.22 | 27003 | 48774
3 | 10:50.25 | 7:55.40 | 48775 | 84439
4 | 18:45.65 | 9:42.64 | 84440 | 128153
5 | 28:28.54 | 9:46.16 | 128154 | 172119


Track 1

Filename M:\II\Jazz\Mingus\Charles Mingus - Tonight at Noon (1965) [FLAC] {Japan 24-bit}\01 - Tonight At Noon.wav

Pre-gap length 0:00:02.00

Peak level 100.0 %
Track quality 100.0 %
Test CRC B81705CA
Copy CRC B81705CA
Accurately ripped (confidence 2) [FF574B29]
Copy OK

Track 2

Filename M:\II\Jazz\Mingus\Charles Mingus - Tonight at Noon (1965) [FLAC] {Japan 24-bit}\02 - Invisible Lady.wav

Pre-gap length 0:00:01.36

Peak level 100.0 %
Track quality 100.0 %
Test CRC 8923AA01
Copy CRC 8923AA01
Accurately ripped (confidence 1) [F40702FB]
Copy OK

Track 3

Filename M:\II\Jazz\Mingus\Charles Mingus - Tonight at Noon (1965) [FLAC] {Japan 24-bit}\03 - 'old' Blues For Walt's Torin.wav

Pre-gap length 0:00:01.33

Peak level 100.0 %
Track quality 100.0 %
Test CRC 8B5DDAA5
Copy CRC 8B5DDAA5
Accurately ripped (confidence 1) [38D496F4]
Copy OK

Track 4

Filename M:\II\Jazz\Mingus\Charles Mingus - Tonight at Noon (1965) [FLAC] {Japan 24-bit}\04 - Peggy's Blue Skylight.wav

Pre-gap length 0:00:01.33

Peak level 100.0 %
Track quality 100.0 %
Test CRC D551A54C
Copy CRC D551A54C
Accurately ripped (confidence 1) [B8BFE641]
Copy OK

Track 5

Filename M:\II\Jazz\Mingus\Charles Mingus - Tonight at Noon (1965) [FLAC] {Japan 24-bit}\05 - Passions Of A Woman Loved.wav

Pre-gap length 0:00:01.29

Peak level 100.0 %
Track quality 100.0 %
Test CRC 61D37507
Copy CRC 61D37507
Accurately ripped (confidence 1) [0FED3A33]
Copy OK


All tracks accurately ripped

No errors occurred

End of status report

[CUETools log; Date: 11.02.2019 22:27:55; Version: 2.1.4]
[CTDB TOCID: 4bktz6K_2uMgAC_vF2aXPfZ7GeU-] found.
Track | CTDB Status
1 | (5/5) Accurately ripped
2 | (5/5) Accurately ripped
3 | (5/5) Accurately ripped
4 | (5/5) Accurately ripped
5 | (5/5) Accurately ripped
[AccurateRip ID: 000706cc-0021befe-2e08f605] found.
Track [ CRC | V2 ] Status
01 [ff574b29|f5c46711] (5+3/8) Accurately ripped
02 [f40702fb|f762da32] (4+3/7) Accurately ripped
03 [38d496f4|efe59ca2] (4+3/7) Accurately ripped
04 [b8bfe641|5c1d5736] (4+3/7) Accurately ripped
05 [0fed3a33|143532a7] (4+2/6) Accurately ripped

Track Peak [ CRC32 ] [W/O NULL] [ LOG ]
– 100,0 [CFC299CF] [8680408D]
01 100,0 [B81705CA] [58FBDD55] CRC32
02 100,0 [8923AA01] [6322E3D1] CRC32
03 100,0 [8B5DDAA5] [D46715F4] CRC32
04 100,0 [D551A54C] [5C367C54] CRC32
05 100,0 [61D37507] [79245BA4] CRC32

Thanks to Bezz

See also: