Tags
Language
Tags

Charles Mingus - Town Hall Concert (1964) [Reissue 1990]

Posted By: gribovar
Charles Mingus - Town Hall Concert (1964) [Reissue 1990]

Charles Mingus - Town Hall Concert (1964) [Reissue 1990]
EAC Rip | APE (image+.cue+log) - 273 MB | Covers - 70 MB
Genre: Jazz | RAR 3% Rec. | Label: Jazz Workshop/Fantasy (00025218604222)

The first of many live recordings made of Mingus's touring band of 1964, most in Europe, it's got one of his strongest lineups: Eric Dolphy (alto saxophone, bass clarinet, flute), Johnny Coles (trumpet), Clifford Jordan (tenor saxophone), Jaki Byard (piano), and Dannie Richmond (drums). Every performance on the tour is worth listening to. The only knock against this disc is its 45-minute length.
Tracklist:
01. So Long Eric
02. Praying With Eric

Total time: 45:19

Exact Audio Copy V0.99 prebeta 3 from 28. July 2007

Отчёт EAC об извлечении, выполненном 12. апреля 2008, 16:14

Charles Mingus / Town Hall Concert

Дисковод: Optiarc DVD RW AD-7203A Adapter: 0 ID: 1

Режим чтения : Достоверность
Использование точного потока : Да
Отключение кэша аудио : Да
Использование указателей C2 : Нет

Коррекция смещения при чтении : 48
Способность читать области Lead-in и Lead-out : Нет
Заполнение пропущенных сэмплов тишиной : Да
Удаление блоков с тишиной в начале и конце : Нет
При вычислениях CRC использовались нулевые сэмплы : Да
Интерфейс : Установленный внешний ASPI-интерфейс

Выходной формат : Monkey's Audio Lossless Encoder v3.99 DLL
Формат сэмплов : Normal Lossless Compression


TOC извлечённого CD

Трек | Старт | Длительность | Начальный сектор | Конечный сектор
––––––––––––––––––––––––––––––––––-
1 | 0:00.00 | 17:48.52 | 0 | 80151
2 | 17:48.52 | 27:30.53 | 80152 | 203954


Характеристики диапазона извлечения и сообщения об ошибках

Выбранный диапазон

Имя файла C:\Documents and Settings\1\Рабочий стол\Charles Mingus - Town Hall Concert.ape

Пиковый уровень 97.0 %
Качество диапазона 100.0 %
CRC теста 44EB7838
CRC копии 44EB7838
Копирование… OK

Ошибок не произошло

Конец отчёта

[CUETools log; Date: 08.02.2019 1:02:35; Version: 2.1.4]
[CTDB TOCID: _e8kasw3V3htV2WcU6jDnHEh5pQ-] found.
Track | CTDB Status
1 | (57/59) Accurately ripped
2 | (58/59) Accurately ripped
[AccurateRip ID: 000455cb-000bc84a-0a0a9f02] found.
Track [ CRC | V2 ] Status
01 [0ca93ee5|fc0198f4] (00+04/36) Accurately ripped
02 [14fee8d8|adae066c] (00+04/35) Accurately ripped
Offsetted by 92:
01 [948e15a5] (02/36) Accurately ripped
02 [8cc292b6] (03/35) Accurately ripped
Offsetted by 751:
01 [0d249140] (06/36) Accurately ripped
02 [acf6eec7] (06/35) Accurately ripped
Offsetted by 762:
01 [f7459146] (03/36) Accurately ripped
02 [4dce2095] (03/35) Accurately ripped
Offsetted by 98:
01 [8b69d694] (00/36) No match (V2 was not tested)
02 [30cb5234] (00/35) No match (V2 was not tested)

Track Peak [ CRC32 ] [W/O NULL] [ LOG ]
– 97,0 [44EB7838] [F45A393C] CRC32
01 96,7 [0326AF4E] [8EFFBEA6]
02 97,0 [E8515F0F] [E50EB12C]

Thanks to albert k

See also: