Tags
Language
Tags
June 2024
Su Mo Tu We Th Fr Sa
26 27 28 29 30 31 1
2 3 4 5 6 7 8
9 10 11 12 13 14 15
16 17 18 19 20 21 22
23 24 25 26 27 28 29
30 1 2 3 4 5 6

Charlie Byrd, Barney Kessel, Herb Ellis - Great Guitars (1975) [Japanese Edition 2002]

Posted By: gribovar
Charlie Byrd, Barney Kessel, Herb Ellis - Great Guitars (1975) [Japanese Edition 2002]

Charlie Byrd, Barney Kessel, Herb Ellis - Great Guitars (1975) [Japanese Edition 2002]
EAC Rip | FLAC (tracks+.cue+log) - 306 MB | MP3 CBR 320 kbps (LAME 3.93) - 125 MB | Covers - 29 MB
Genre: Jazz, Bop, Guitar Jazz | RAR 3% Rec. | Label: Victor (VICJ-60913)

Charlie Byrd was teamed up with Barney Kessel and Herb Ellis (along with bassist Joe Byrd and drummer John Rae) for this rather exciting concert. While Ellis and Kessel have three unaccompanied duets, the inclusion of Byrd (thought of as a Brazilian specialist rather than a bopper) is the wild card that makes this set a major success. While Byrd is excellent on his features "Charlie's Blues" and "O Barquinho," it is the three stomps featuring all the guitarists ("Undecided," "Topsy" and "Benny's Bugle") that are most memorable.
Tracklist:
01. Undecided
02. O Barquinho
03. Slow Burn
04. Charlie's Blues
05. Topsy
06. Latin Groove
07. Down Home Blues
08. H and B Guitar Boogie
09. Benny's Bugle

Total time: 53:07

Exact Audio Copy V1.6 from 23. October 2020

EAC extraction logfile from 24. April 2024, 2:00

Great Guitars / Recorded Live At The Concord Summer Festival

Used drive : HL-DT-STBD-RE WH16NS40 Adapter: 1 ID: 0

Read mode : Secure
Utilize accurate stream : Yes
Defeat audio cache : Yes
Make use of C2 pointers : No

Read offset correction : 6
Overread into Lead-In and Lead-Out : No
Fill up missing offset samples with silence : Yes
Delete leading and trailing silent blocks : No
Null samples used in CRC calculations : Yes
Used interface : Native Win32 interface for Win NT & 2000
Gap handling : Appended to previous track

Used output format : User Defined Encoder
Selected bitrate : 1024 kBit/s
Quality : High
Add ID3 tag : No
Command line compressor : C:\Program Files (x86)\Exact Audio Copy\FLAC\FLAC.EXE
Additional command line options : -8 -V -T "ARTIST=%artist%" -T "TITLE=%title%" -T "ALBUM=%albumtitle%" -T "DATE=%year%" -T "TRACKNUMBER=%tracknr%" -T "GENRE=%genre%" -T "PERFORMER=%albuminterpret%" -T "COMPOSER=%composer%" %haslyrics%–tag-from-file=LYRICS="%lyricsfile%"%haslyrics% -T "ALBUMARTIST=%albumartist%" -T "DISCNUMBER=%cdnumber%" -T "TOTALDISCS=%totalcds%" -T "TOTALTRACKS=%numtracks%" -T "COMMENT=%comment%" %source% -o %dest%


TOC of the extracted CD

Track | Start | Length | Start sector | End sector
––––––––––––––––––––––––––––-
1 | 0:00.00 | 6:48.70 | 0 | 30669
2 | 6:48.70 | 4:54.33 | 30670 | 52752
3 | 11:43.28 | 5:40.37 | 52753 | 78289
4 | 17:23.65 | 8:30.05 | 78290 | 116544
5 | 25:53.70 | 6:46.20 | 116545 | 147014
6 | 32:40.15 | 4:52.10 | 147015 | 168924
7 | 37:32.25 | 4:04.65 | 168925 | 187289
8 | 41:37.15 | 4:18.13 | 187290 | 206652
9 | 45:55.28 | 7:11.70 | 206653 | 239047


Track 1

Filename C:\EAC Rips\Charlie Byrd, Barney Kessel, Herb Ellis - Great Guitars - Recorded Live At The Concord Summer Festival [FLAC] {VICJ-60913}\01 - Undecided.wav

Pre-gap length 0:00:02.00

Peak level 97.9 %
Extraction speed 4.8 X
Track quality 100.0 %
Test CRC 52CB76DB
Copy CRC 52CB76DB
Accurately ripped (confidence 1) [B589D2DB] (AR v2)
Copy OK

Track 2

Filename C:\EAC Rips\Charlie Byrd, Barney Kessel, Herb Ellis - Great Guitars - Recorded Live At The Concord Summer Festival [FLAC] {VICJ-60913}\02 - O Barquinho.wav

Peak level 97.9 %
Extraction speed 4.6 X
Track quality 99.9 %
Test CRC 297BC9F6
Copy CRC 297BC9F6
Accurately ripped (confidence 1) [85CA5877] (AR v2)
Copy OK

Track 3

Filename C:\EAC Rips\Charlie Byrd, Barney Kessel, Herb Ellis - Great Guitars - Recorded Live At The Concord Summer Festival [FLAC] {VICJ-60913}\03 - Slow Burn.wav

Peak level 97.9 %
Extraction speed 6.0 X
Track quality 100.0 %
Test CRC 5E67D02C
Copy CRC 5E67D02C
Accurately ripped (confidence 1) [963A78C6] (AR v2)
Copy OK

Track 4

Filename C:\EAC Rips\Charlie Byrd, Barney Kessel, Herb Ellis - Great Guitars - Recorded Live At The Concord Summer Festival [FLAC] {VICJ-60913}\04 - Charlie's Blues.wav

Peak level 97.9 %
Extraction speed 6.9 X
Track quality 100.0 %
Test CRC 3DB4C1BB
Copy CRC 3DB4C1BB
Accurately ripped (confidence 1) [1AD504EF] (AR v2)
Copy OK

Track 5

Filename C:\EAC Rips\Charlie Byrd, Barney Kessel, Herb Ellis - Great Guitars - Recorded Live At The Concord Summer Festival [FLAC] {VICJ-60913}\05 - Topsy.wav

Peak level 97.9 %
Extraction speed 7.4 X
Track quality 100.0 %
Test CRC 73CB450A
Copy CRC 73CB450A
Accurately ripped (confidence 1) [358E6EDF] (AR v2)
Copy OK

Track 6

Filename C:\EAC Rips\Charlie Byrd, Barney Kessel, Herb Ellis - Great Guitars - Recorded Live At The Concord Summer Festival [FLAC] {VICJ-60913}\06 - Latin Groove.wav

Peak level 97.9 %
Extraction speed 6.5 X
Track quality 99.9 %
Test CRC 8A0EACE2
Copy CRC 8A0EACE2
Accurately ripped (confidence 1) [C19F832B] (AR v2)
Copy OK

Track 7

Filename C:\EAC Rips\Charlie Byrd, Barney Kessel, Herb Ellis - Great Guitars - Recorded Live At The Concord Summer Festival [FLAC] {VICJ-60913}\07 - Down Home Blues.wav

Peak level 97.9 %
Extraction speed 7.8 X
Track quality 100.0 %
Test CRC 06A2AAAF
Copy CRC 06A2AAAF
Accurately ripped (confidence 1) [C5C30860] (AR v2)
Copy OK

Track 8

Filename C:\EAC Rips\Charlie Byrd, Barney Kessel, Herb Ellis - Great Guitars - Recorded Live At The Concord Summer Festival [FLAC] {VICJ-60913}\08 - H And B Guitar Boogie.wav

Peak level 97.9 %
Extraction speed 8.1 X
Track quality 100.0 %
Test CRC 95760194
Copy CRC 95760194
Accurately ripped (confidence 1) [A8E4A058] (AR v2)
Copy OK

Track 9

Filename C:\EAC Rips\Charlie Byrd, Barney Kessel, Herb Ellis - Great Guitars - Recorded Live At The Concord Summer Festival [FLAC] {VICJ-60913}\09 - Benny's Bugle.wav

Peak level 97.9 %
Extraction speed 7.8 X
Track quality 99.9 %
Test CRC 5AFE563A
Copy CRC 5AFE563A
Accurately ripped (confidence 1) [95838BDD] (AR v2)
Copy OK


All tracks accurately ripped

No errors occurred

End of status report

–– CUETools DB Plugin V2.1.6

[CTDB TOCID: sAYt.j3bcXwRns3e74uCcw6ywwY-] found
Submit result: sAYt.j3bcXwRns3e74uCcw6ywwY- has been confirmed
Track | CTDB Status
1 | (2/2) Accurately ripped
2 | (2/2) Accurately ripped
3 | (2/2) Accurately ripped
4 | (2/2) Accurately ripped
5 | (2/2) Accurately ripped
6 | (2/2) Accurately ripped
7 | (2/2) Accurately ripped
8 | (2/2) Accurately ripped
9 | (2/2) Accurately ripped


==== Log checksum 59967A482C77C1DE8AD0D493F4849D8C1A6D783ED54638CD15A62A2A1D8C03DA ====

[CUETools log; Date: 15.05.2024 12:14:36; Version: 2.1.4]
[CTDB TOCID: sAYt.j3bcXwRns3e74uCcw6ywwY-] found.
Track | CTDB Status
1 | (3/3) Accurately ripped
2 | (3/3) Accurately ripped
3 | (3/3) Accurately ripped
4 | (3/3) Accurately ripped
5 | (3/3) Accurately ripped
6 | (3/3) Accurately ripped
7 | (3/3) Accurately ripped
8 | (3/3) Accurately ripped
9 | (3/3) Accurately ripped
[AccurateRip ID: 0012b9b5-00883dd7-790c7309] found.
Track [ CRC | V2 ] Status
01 [68b65d6c|b589d2db] (0+1/1) Accurately ripped
02 [3390f98d|85ca5877] (0+1/1) Accurately ripped
03 [f7679512|963a78c6] (0+1/1) Accurately ripped
04 [828e4cb6|1ad504ef] (0+1/1) Accurately ripped
05 [269f598e|358e6edf] (0+1/1) Accurately ripped
06 [e0868965|c19f832b] (0+1/1) Accurately ripped
07 [7ed20906|c5c30860] (0+1/1) Accurately ripped
08 [17aa0a4b|a8e4a058] (0+1/1) Accurately ripped
09 [9249c777|95838bdd] (0+1/1) Accurately ripped

Track Peak [ CRC32 ] [W/O NULL] [ LOG ]
– 97,9 [755E7C41] [73CC1509]
01 97,9 [52CB76DB] [63331440] CRC32
02 97,9 [297BC9F6] [B08D139E] CRC32
03 97,9 [5E67D02C] [4899E885] CRC32
04 97,9 [3DB4C1BB] [F1FFE445] CRC32
05 97,9 [73CB450A] [1B0EA735] CRC32
06 97,9 [8A0EACE2] [DDCF0472] CRC32
07 97,9 [06A2AAAF] [DCF9A9CA] CRC32
08 97,9 [95760194] [8F03EF93] CRC32
09 97,9 [5AFE563A] [826FC6FD] CRC32

Thanks to AudioCloth