Subcategories

Charlie Haden - The Best Of Quartet West (2007)

Posted By: Designol
Charlie Haden - The Best Of Quartet West (2007)

Charlie Haden - The Best Of Quartet West (2007)
EAC | FLAC | Tracks (Cue&Log) ~ 404 Mb | Mp3 (CBR320) ~ 179 Mb | Scans ~ 55 Mb
Cool, Vocal Jazz, Standarts | Label: Verve | # 530 210-7 | Time: 01:18:14

It would seem a strange thing compiling the work of Charlie Haden's decade-long Quartet West Group onto a single disc. The reason isn't that they recorded so much material, but more because the material was themed record by record. Yet that is exactly why a compilation like this does work, because this group played music utilizing different aspects of the same theme: to evoke the spirits, ghosts and sprites of a Los Angeles that has moved off the screen of real life into the stuff of myth. That Haden and his group, which included drummer Larance Marable (who replaced Billy Higgins after the group's first, self-titled album in 1986), saxophonist Ernie Watts, and pianist Alan Broadbent could make it all sound so present and real, gives the impression that there was truth in the images. This is not only from a West Coast point of view (though there it is imbued more with the striking visual reveries to accompany the tunes) but also in the popular culture mythos in the collective American mind. The nostalgia inherent in the quartet's projects of playing standards and film themes, as well as original material slanted in such a way, are offset by the genuine innovative heart of jazz when performed by masters such as these men are. Higgins is here in the gorgeous reading of "Body and Soul," and the change is measured sharply by the next album In Angel City, as Marable, a less "busy" drummer, played more in song line form. Marable's drumming on Haden's "First Song (For Ruth)" offers the striking difference in a number of ways, as his fills are more rounded and warm, while Higgins' playing was sharper and more pronounced. The sense of the unit flows a bit more. Haden wrote much of the material for this group, and the obvious ease with which the ensemble plays them offers a view into the mind of the composer who could compose to the strengths of both individuals and the group – note "Our Spanish Love Song" and the title cut from Always Say Goodbye. Other well-known tunes, such as Leonard Bernstein's "Lonely Town" from the album, The Art of the Song, with a wonderful vocal by Shirley Horn and violin solo (fronting an orchestra conducted by Broadbent), reflect not nostalgia, but the ability of a jazz quartet to evoke what is not only missing, but gone. The emptiness created between the musicians and the singer is profound, sad, and utterly beautiful. Elsewhere, Stéphane Grappelli plays a violin solo over his own taped violin solo from a 1949 performance of "Where Are You My Love," with Django Reinhardt, Gianni Safred, Carlo Pecori, and Aurelio de Carolis. The wonders of technology being what they are, Haden makes it all sound seamless. The great moment here, however, is in the reading of Victor Young's "The Left Hand of God," from the 1996 album Now Is the Hour, where the quartet performs the tune nearly straight yet in front of an orchestra arranged and conducted by Broadbent. In the long lonesome tone of Watts' saxophone, the built up emotion comes streaming from the tune with elegance and grace – these word are perhaps the best description of everything this band ever recorded. This is an excellent compilation to be sure, but it does make the listener long for more; for the total experience of Quartet West. Consider this, then, an introduction more than a summing up: there is so much more to look forward to from this group.

Review by Thom Jurek, Allmusic.com

Charlie Haden - The Best Of Quartet West (2007)



Charlie Haden - Bass, vocal on 12
Alan Broadbent - Piano
Ernie Watts - Tenor Saxophone
Billy Higgins - Drums on 2
Larence Marable - Drums
Featuring
Stephane Grappelli - Violin on 6
Shirley Horn - Vocal on 10
Murray Adler - Violin solo on 10

Tracklist:

01. Hello My Lovely (6:51)
02. Body And Soul (6:21)
03. First Song (for Ruth) (7:01)
04. Our Spanish Love Song (6:09)
05. Always Say Goodbye (6:38)
06. Where Are You, My Love? (6:46)
07. Here's Looking At You (6:10)
08. Alone Together (5:23)
09. The Left Hand Of God (7:49)
10. Lonely Town (5:28)
11. Moonlight Serenade (9:14)
12. Wayfaring Stranger (4:23)


Exact Audio Copy V0.99 prebeta 4 from 23. January 2008

EAC extraction logfile from 14. November 2009, 9:07

Charlie Haden / The Best Of Quartet West

Used drive : HL-DT-STDVD-RAM GH22NP20 Adapter: 0 ID: 0

Read mode : Secure
Utilize accurate stream : Yes
Defeat audio cache : Yes
Make use of C2 pointers : No

Read offset correction : 102
Overread into Lead-In and Lead-Out : No
Fill up missing offset samples with silence : Yes
Delete leading and trailing silent blocks : No
Null samples used in CRC calculations : Yes
Used interface : Installed external ASPI interface
Gap handling : Appended to previous track

Used output format : User Defined Encoder
Selected bitrate : 320 kBit/s
Quality : High
Add ID3 tag : No
Command line compressor : C:\Program Files\Exact Audio Copy\Flac\flac.exe
Additional command line options : -V -8 -T "artist=%a" -T "title=%t" -T "album=%g" -T "date=%y" -T "tracknumber=%n" -T "genre=%m" %s


TOC of the extracted CD

Track | Start | Length | Start sector | End sector
––––––––––––––––––––––––––––-
1 | 0:00.00 | 6:51.25 | 0 | 30849
2 | 6:51.25 | 6:21.34 | 30850 | 59458
3 | 13:12.59 | 7:00.61 | 59459 | 91019
4 | 20:13.45 | 6:09.09 | 91020 | 118703
5 | 26:22.54 | 6:38.32 | 118704 | 148585
6 | 33:01.11 | 6:46.25 | 148586 | 179060
7 | 39:47.36 | 6:09.50 | 179061 | 206785
8 | 45:57.11 | 5:23.35 | 206786 | 231045
9 | 51:20.46 | 7:49.08 | 231046 | 266228
10 | 59:09.54 | 5:27.74 | 266229 | 290827
11 | 64:37.53 | 9:13.51 | 290828 | 332353
12 | 73:51.29 | 4:22.62 | 332354 | 352065


Track 1

Filename D:\music\Musicgate's rips\Charlie Haden - The Best Of Quartet West (2007)\01 - Hello My Lovely.wav

Pre-gap length 0:00:02.00

Peak level 70.6 %
Track quality 100.0 %
Test CRC AEB01C6B
Copy CRC AEB01C6B
Accurately ripped (confidence 3) [07475169]
Copy OK

Track 2

Filename D:\music\Musicgate's rips\Charlie Haden - The Best Of Quartet West (2007)\02 - Body And Soul.wav

Pre-gap length 0:00:02.60

Peak level 99.9 %
Track quality 100.0 %
Test CRC 89D690C3
Copy CRC 89D690C3
Accurately ripped (confidence 3) [C4840725]
Copy OK

Track 3

Filename D:\music\Musicgate's rips\Charlie Haden - The Best Of Quartet West (2007)\03 - First Song (for Ruth).wav

Pre-gap length 0:00:02.58

Peak level 99.9 %
Track quality 100.0 %
Test CRC 70A134B1
Copy CRC 70A134B1
Accurately ripped (confidence 3) [50CC8699]
Copy OK

Track 4

Filename D:\music\Musicgate's rips\Charlie Haden - The Best Of Quartet West (2007)\04 - Our Spanish Love Song.wav

Pre-gap length 0:00:02.58

Peak level 79.3 %
Track quality 100.0 %
Test CRC 57E158AA
Copy CRC 57E158AA
Accurately ripped (confidence 3) [93869668]
Copy OK

Track 5

Filename D:\music\Musicgate's rips\Charlie Haden - The Best Of Quartet West (2007)\05 - Always Say Goodbye.wav

Pre-gap length 0:00:02.60

Peak level 89.0 %
Track quality 100.0 %
Test CRC 861FD99F
Copy CRC 861FD99F
Accurately ripped (confidence 3) [CDF39BCB]
Copy OK

Track 6

Filename D:\music\Musicgate's rips\Charlie Haden - The Best Of Quartet West (2007)\06 - Where Are You, My Love .wav

Pre-gap length 0:00:02.60

Peak level 79.2 %
Track quality 100.0 %
Test CRC 269E4CA9
Copy CRC 269E4CA9
Accurately ripped (confidence 3) [24B11D99]
Copy OK

Track 7

Filename D:\music\Musicgate's rips\Charlie Haden - The Best Of Quartet West (2007)\07 - Here's Looking At You.wav

Pre-gap length 0:00:02.60

Peak level 79.3 %
Track quality 100.0 %
Test CRC 02B8C424
Copy CRC 02B8C424
Accurately ripped (confidence 3) [C74670D4]
Copy OK

Track 8

Filename D:\music\Musicgate's rips\Charlie Haden - The Best Of Quartet West (2007)\08 - Alone Together.wav

Pre-gap length 0:00:02.58

Peak level 99.9 %
Track quality 100.0 %
Test CRC F889D86F
Copy CRC F889D86F
Accurately ripped (confidence 3) [80CEA331]
Copy OK

Track 9

Filename D:\music\Musicgate's rips\Charlie Haden - The Best Of Quartet West (2007)\09 - The Left Hand Of God.wav

Pre-gap length 0:00:02.58

Peak level 79.3 %
Track quality 100.0 %
Test CRC 83DAB879
Copy CRC 83DAB879
Accurately ripped (confidence 3) [1A7ACAA8]
Copy OK

Track 10

Filename D:\music\Musicgate's rips\Charlie Haden - The Best Of Quartet West (2007)\10 - Lonely Town.wav

Pre-gap length 0:00:02.58

Peak level 79.2 %
Track quality 100.0 %
Test CRC 119C2CB5
Copy CRC 119C2CB5
Accurately ripped (confidence 3) [3649F893]
Copy OK

Track 11

Filename D:\music\Musicgate's rips\Charlie Haden - The Best Of Quartet West (2007)\11 - Moonlight Serenade.wav

Pre-gap length 0:00:02.60

Peak level 79.2 %
Track quality 100.0 %
Test CRC 68135B7F
Copy CRC 68135B7F
Accurately ripped (confidence 3) [5438AFFA]
Copy OK

Track 12

Filename D:\music\Musicgate's rips\Charlie Haden - The Best Of Quartet West (2007)\12 - Wayfaring Stranger.wav

Pre-gap length 0:00:02.60

Peak level 79.2 %
Track quality 100.0 %
Test CRC 34B63D53
Copy CRC 34B63D53
Accurately ripped (confidence 3) [B33505A9]
Copy OK


All tracks accurately ripped

No errors occurred

End of status report

foobar2000 1.2 / Dynamic Range Meter 1.1.1
log date: 2017-06-06 19:45:22

––––––––––––––––––––––––––––––––––––––––
Analyzed: Charlie Haden / The Best Of Quartet West
––––––––––––––––––––––––––––––––––––––––

DR Peak RMS Duration Track
––––––––––––––––––––––––––––––––––––––––
DR12 -3.02 dB -17.13 dB 6:51 01-Hello My Lovely
DR15 0.00 dB -19.11 dB 6:21 02-Body And Soul
DR14 0.00 dB -18.13 dB 7:01 03-First Song (for Ruth)
DR13 -2.01 dB -16.96 dB 6:09 04-Our Spanish Love Song
DR14 -1.00 dB -18.55 dB 6:38 05-Always Say Goodbye
DR13 -2.02 dB -18.05 dB 6:46 06-Where Are You, My Love?
DR12 -2.01 dB -17.00 dB 6:10 07-Here's Looking At You
DR13 0.00 dB -17.49 dB 5:23 08-Alone Together
DR13 -2.01 dB -18.69 dB 7:49 09-The Left Hand Of God
DR11 -2.02 dB -17.63 dB 5:28 10-Lonely Town
DR12 -2.02 dB -15.86 dB 9:14 11-Moonlight Serenade
DR10 -2.02 dB -16.51 dB 4:23 12-Wayfaring Stranger
––––––––––––––––––––––––––––––––––––––––

Number of tracks: 12
Official DR value: DR13

Samplerate: 44100 Hz
Channels: 2
Bits per sample: 16
Bitrate: 717 kbps
Codec: FLAC
================================================================================

Charlie Haden - The Best Of Quartet West (2007)

Charlie Haden - The Best Of Quartet West (2007)

All thanks to original releaser - Musicgate

More interesting music in My Blog