Tags
Language
Tags
June 2024
Su Mo Tu We Th Fr Sa
26 27 28 29 30 31 1
2 3 4 5 6 7 8
9 10 11 12 13 14 15
16 17 18 19 20 21 22
23 24 25 26 27 28 29
30 1 2 3 4 5 6

Charlie Byrd - Four Classic Albums (1957-1960) [2CD Reissue 2014]

Posted By: gribovar
Charlie Byrd - Four Classic Albums (1957-1960) [2CD Reissue 2014]

Charlie Byrd - Four Classic Albums (1957-1960) [2CD Reissue 2014]
EAC Rip | FLAC (tracks+.cue+log) - 813 MB | MP3 CBR 320 kbps (LAME 3.93) - 373 MB | Covers - 6 MB
Genre: Jazz, Bop, Latin Jazz, Guitar Jazz | RAR 3% Rec. | Label: Avid Jazz (EMSC1123)

Avid Jazz presents four classic Charlie Byrd albums including original LP liner notes on a finely re-mastered and low priced double CD. “Jazz Recital”; “Blues For Night People”; “Byrd’s Word” and “The Guitar Artistry of Charlie Byrd”.
You might say Charlie Byrd was on a mission on his first album as a solo artist “Jazz Recital”, recorded in Hackensack, New Jersey in February 1957. A passionate believer in the guitar as an affective lead instrument in jazz, five of the ten cuts here are solo guitar pieces. With a background in classical guitar technique and having studied in Italy with the guitar maestro Segovia, Byrd lays out his ambition in the original liner notes “I’d like to see the guitarists of today using more of the vast store of knowledge….piled up by great lute players and guitarists of the last 400 years..….why must the guitar be confined to single line playing and rhythm accompaniment…..if the guitar is going to take an important place as a solo instrument it must be broadened…its capabilities were proved centuries ago”. Featured alongside Byrd on Spanish guitar are Tom Newsom on flute and tenor sax, Al Lucas on bass and Bobby Donaldson on drums. Byrd is also featured on electric guitar on the last two tracks. Back by popular demand after his first solo album we have “Blues for Night People” the second album from Charlie Byrd. Here again utilising his Spanish guitar Byrd is joined by Keeter Betts on bass and ex Basie sideman Gus Johnson on drums. The album is divided into two distinct sides, with Side A “a mood series of impressions in a minor blues mode while Side B’s four tracks “illustrate a balance of semi Spanish a tempo rambling, Django Reinhardt – like single line work, “down” block chording and pyrimidical solo sequence building to a logical and restrainedly exciting climax!” (Pseuds Corner here we come! Sorry Ed.) Recorded at the YWCA, Washington in 1958 where the acoustics were said to be “excellent for small groups” take a listen to “Byrd’s Word”. Mixing it up between electric and acoustic guitar, Byrd in his own words states, “ I like to leave a lot of room for improvisation……that’s one of the most interesting things about jazz”. Joining Byrd are Bobby Felder on valve trombone, Buck Hill on tenor sax, T Carson or Charlie Schneer on piano, Keeter Betts on bass and cello, Bertell Knox or Eddie Phyfe on drums, Kenneth Pasmanick on bassoon with Byrd’s wife Ginny taking vocal duties on two tracks. “The Guitar Artistry of Charlie Byrd” recorded in Washington in 1960 is an album of two sides! Side One “ is all shorties” while Side Two is a selection giving the musicians more room to improvise and solo. Joining Byrd here for this set are Buddy Deppenschmidt on drums and Keeter Betts on bass.
All four albums plus have been digitally re-mastered.
CD 1 Tracklist:

Jazz Recital (1957):
01. Prelude
02. My Funny Valentine
03. Little Blue Girl
04. My Heart Stood Still
05. Interlude
06. Spring Is Here
07. A Foggy Day

Blues For Night People (1957):
08. Spanish Guitar Blues
09. Chuck-A-Tuck
10. Homage To Charlie Christian
11. First Show
12. 2.00 am
13. Four O'Clock Funk
14. Blues My Naughtie Sweetie Gives To Me
15. Blue Prelude
16. This Can't Be Love
17. Jive At Five

Byrd's Word (1959):
18. Byrd's Word
19. Blue Turning Grey Over You

Total time: 01:19:06

CD 2 Tracklist:

Byrd's Word (1959):
01. Bobby In Bassoonville
02. Satin Doll
03. Tri-X
04. Conversation Piece
05. What's New
06. Stompin' At The Savoy
07. Don't Explain
08. Buck's Hill

The Guitar Artistry Of Charlie Byrd (1960):
09. Taking A Chance On Love
10. Moonlight In Vermont
11. Speak Low
12. Nuages
13. Everything I've Got Belongs To You
14. Makin' Whoopee
15. Django
16. Nice Work If You Can Get It
17. The House Of The Rising Sun
18. Ring Them Harmonics
19. Taboo
20. To Ginny

Total time: 01:19:42

Exact Audio Copy V1.3 from 2. September 2016

EAC extraction logfile from 7. July 2023, 14:13

Charlie Byrd / Four Classic Albums - CD1

Used drive : TSSTcorpCDDVDW SH-224FB Adapter: 1 ID: 0

Read mode : Secure
Utilize accurate stream : Yes
Defeat audio cache : Yes
Make use of C2 pointers : No

Read offset correction : 6
Overread into Lead-In and Lead-Out : No
Fill up missing offset samples with silence : Yes
Delete leading and trailing silent blocks : No
Null samples used in CRC calculations : Yes
Used interface : Native Win32 interface for Win NT & 2000
Gap handling : Appended to previous track

Used output format : User Defined Encoder
Selected bitrate : 128 kBit/s
Quality : High
Add ID3 tag : No
Command line compressor : C:\Program Files (x86)\Exact Audio Copy\Flac\flac.exe
Additional command line options : -V -8 -T "Genre=%genre%" -T "Artist=%artist%" -T "Title=%title%" -T "Album=%albumtitle%" -T "Date=%year%" -T "Tracknumber=%tracknr%" -T "Comment=%comment%" %source%


TOC of the extracted CD

Track | Start | Length | Start sector | End sector
––––––––––––––––––––––––––––-
1 | 0:00.00 | 3:06.26 | 0 | 13975
2 | 3:06.26 | 3:41.51 | 13976 | 30601
3 | 6:48.02 | 3:50.06 | 30602 | 47857
4 | 10:38.08 | 3:20.03 | 47858 | 62860
5 | 13:58.11 | 1:32.20 | 62861 | 69780
6 | 15:30.31 | 3:07.03 | 69781 | 83808
7 | 18:37.34 | 3:38.71 | 83809 | 100229
8 | 22:16.30 | 2:17.29 | 100230 | 110533
9 | 24:33.59 | 4:09.23 | 110534 | 129231
10 | 28:43.07 | 3:47.16 | 129232 | 146272
11 | 32:30.23 | 8:35.52 | 146273 | 184949
12 | 41:06.00 | 6:11.55 | 184950 | 212829
13 | 47:17.55 | 5:46.25 | 212830 | 238804
14 | 53:04.05 | 3:42.57 | 238805 | 255511
15 | 56:46.62 | 5:24.25 | 255512 | 279836
16 | 62:11.12 | 2:43.45 | 279837 | 292106
17 | 64:54.57 | 5:44.73 | 292107 | 317979
18 | 70:39.55 | 5:32.02 | 317980 | 342881
19 | 76:11.57 | 2:54.07 | 342882 | 355938


Track 1

Filename C:\ssagwebster\Charlie Byrd - Four Classic Albums (2CD, 2014)\CD1\01. Prelude.wav

Pre-gap length 0:00:02.00

Peak level 61.9 %
Extraction speed 1.8 X
Track quality 100.0 %
Test CRC 927EC571
Copy CRC 927EC571
Accurately ripped (confidence 4) [637FD692] (AR v2)
Copy OK

Track 2

Filename C:\ssagwebster\Charlie Byrd - Four Classic Albums (2CD, 2014)\CD1\02. My Funny Valentine.wav

Pre-gap length 0:00:03.58

Peak level 69.1 %
Extraction speed 2.0 X
Track quality 100.0 %
Test CRC 634528AA
Copy CRC 634528AA
Accurately ripped (confidence 4) [C373DF97] (AR v2)
Copy OK

Track 3

Filename C:\ssagwebster\Charlie Byrd - Four Classic Albums (2CD, 2014)\CD1\03. Little Blue Girl.wav

Pre-gap length 0:00:03.58

Peak level 71.7 %
Extraction speed 1.9 X
Track quality 99.9 %
Test CRC D1356A0B
Copy CRC D1356A0B
Accurately ripped (confidence 4) [EA7B7181] (AR v2)
Copy OK

Track 4

Filename C:\ssagwebster\Charlie Byrd - Four Classic Albums (2CD, 2014)\CD1\04. My Heart Stood Still.wav

Pre-gap length 0:00:03.58

Peak level 64.1 %
Extraction speed 2.2 X
Track quality 100.0 %
Test CRC 341775C7
Copy CRC 341775C7
Accurately ripped (confidence 4) [18D4FF8C] (AR v2)
Copy OK

Track 5

Filename C:\ssagwebster\Charlie Byrd - Four Classic Albums (2CD, 2014)\CD1\05. Interlude.wav

Pre-gap length 0:00:03.58

Peak level 53.1 %
Extraction speed 1.4 X
Track quality 99.8 %
Test CRC A172AD56
Copy CRC A172AD56
Accurately ripped (confidence 4) [799D7699] (AR v2)
Copy OK

Track 6

Filename C:\ssagwebster\Charlie Byrd - Four Classic Albums (2CD, 2014)\CD1\06. Spring Is Here.wav

Pre-gap length 0:00:03.58

Peak level 57.1 %
Extraction speed 2.4 X
Track quality 100.0 %
Test CRC CD646C4C
Copy CRC CD646C4C
Accurately ripped (confidence 4) [4C59261F] (AR v2)
Copy OK

Track 7

Filename C:\ssagwebster\Charlie Byrd - Four Classic Albums (2CD, 2014)\CD1\07. A Foggy Day.wav

Pre-gap length 0:00:03.58

Peak level 63.4 %
Extraction speed 2.6 X
Track quality 100.0 %
Test CRC 7BD2402C
Copy CRC 7BD2402C
Accurately ripped (confidence 4) [AB5280AB] (AR v2)
Copy OK

Track 8

Filename C:\ssagwebster\Charlie Byrd - Four Classic Albums (2CD, 2014)\CD1\08. Spanish Guitar Blues.wav

Pre-gap length 0:00:03.58

Peak level 75.7 %
Extraction speed 2.5 X
Track quality 100.0 %
Test CRC AAC900C6
Copy CRC AAC900C6
Accurately ripped (confidence 4) [A61CB9DA] (AR v2)
Copy OK

Track 9

Filename C:\ssagwebster\Charlie Byrd - Four Classic Albums (2CD, 2014)\CD1\09. Chuck-A-Tuck.wav

Pre-gap length 0:00:03.58

Peak level 100.0 %
Extraction speed 2.3 X
Track quality 99.9 %
Test CRC 21B41C12
Copy CRC 21B41C12
Accurately ripped (confidence 4) [D751C8F5] (AR v2)
Copy OK

Track 10

Filename C:\ssagwebster\Charlie Byrd - Four Classic Albums (2CD, 2014)\CD1\10. Homage To Charlie Christian.wav

Pre-gap length 0:00:03.58

Peak level 90.6 %
Extraction speed 2.9 X
Track quality 100.0 %
Test CRC A8D53A46
Copy CRC A8D53A46
Accurately ripped (confidence 4) [463A07A3] (AR v2)
Copy OK

Track 11

Filename C:\ssagwebster\Charlie Byrd - Four Classic Albums (2CD, 2014)\CD1\11. First Show.wav

Pre-gap length 0:00:03.58

Peak level 72.4 %
Extraction speed 3.4 X
Track quality 100.0 %
Test CRC 37E2FECF
Copy CRC 37E2FECF
Accurately ripped (confidence 4) [4948D971] (AR v2)
Copy OK

Track 12

Filename C:\ssagwebster\Charlie Byrd - Four Classic Albums (2CD, 2014)\CD1\12. 2.00 am.wav

Pre-gap length 0:00:03.58

Peak level 74.3 %
Extraction speed 3.5 X
Track quality 100.0 %
Test CRC B280A45D
Copy CRC B280A45D
Accurately ripped (confidence 4) [F4159F1F] (AR v2)
Copy OK

Track 13

Filename C:\ssagwebster\Charlie Byrd - Four Classic Albums (2CD, 2014)\CD1\13. Four O'Clock Funk.wav

Pre-gap length 0:00:03.58

Peak level 73.6 %
Extraction speed 3.6 X
Track quality 100.0 %
Test CRC 41E69881
Copy CRC 41E69881
Accurately ripped (confidence 4) [CD98D9D5] (AR v2)
Copy OK

Track 14

Filename C:\ssagwebster\Charlie Byrd - Four Classic Albums (2CD, 2014)\CD1\14. Blues My Naughtie Sweetie Gives To Me.wav

Pre-gap length 0:00:03.58

Peak level 79.9 %
Extraction speed 2.7 X
Track quality 99.9 %
Test CRC 2CC84BE3
Copy CRC 2CC84BE3
Accurately ripped (confidence 4) [21170409] (AR v2)
Copy OK

Track 15

Filename C:\ssagwebster\Charlie Byrd - Four Classic Albums (2CD, 2014)\CD1\15. Blue Prelude.wav

Pre-gap length 0:00:03.58

Peak level 73.0 %
Extraction speed 3.1 X
Track quality 99.9 %
Test CRC BE2D2CA5
Copy CRC BE2D2CA5
Accurately ripped (confidence 4) [AA7C265F] (AR v2)
Copy OK

Track 16

Filename C:\ssagwebster\Charlie Byrd - Four Classic Albums (2CD, 2014)\CD1\16. This Can't Be Love.wav

Pre-gap length 0:00:03.58

Peak level 78.9 %
Extraction speed 3.5 X
Track quality 100.0 %
Test CRC 7E0D067B
Copy CRC 7E0D067B
Accurately ripped (confidence 4) [3D7F485B] (AR v2)
Copy OK

Track 17

Filename C:\ssagwebster\Charlie Byrd - Four Classic Albums (2CD, 2014)\CD1\17. Jive At Five.wav

Pre-gap length 0:00:03.58

Peak level 82.2 %
Extraction speed 3.3 X
Track quality 99.9 %
Test CRC 9778E8C7
Copy CRC 9778E8C7
Accurately ripped (confidence 4) [992E5D8F] (AR v2)
Copy OK

Track 18

Filename C:\ssagwebster\Charlie Byrd - Four Classic Albums (2CD, 2014)\CD1\18. Byrd's Word.wav

Pre-gap length 0:00:03.58

Peak level 80.0 %
Extraction speed 4.1 X
Track quality 100.0 %
Test CRC 98FBF8BE
Copy CRC 98FBF8BE
Accurately ripped (confidence 4) [B5DEECD9] (AR v2)
Copy OK

Track 19

Filename C:\ssagwebster\Charlie Byrd - Four Classic Albums (2CD, 2014)\CD1\19. Blue Turning Grey Over You.wav

Pre-gap length 0:00:03.58

Peak level 82.2 %
Extraction speed 3.8 X
Track quality 100.0 %
Test CRC BD78F1B1
Copy CRC BD78F1B1
Accurately ripped (confidence 4) [173F68FB] (AR v2)
Copy OK


All tracks accurately ripped

No errors occurred

End of status report

–– CUETools DB Plugin V2.1.6

[CTDB TOCID: Zqb.MemA94cRxyeVkvy5tzianww-] found
Submit result: Zqb.MemA94cRxyeVkvy5tzianww- has been confirmed
Track | CTDB Status
1 | (7/7) Accurately ripped
2 | (7/7) Accurately ripped
3 | (7/7) Accurately ripped
4 | (7/7) Accurately ripped
5 | (7/7) Accurately ripped
6 | (7/7) Accurately ripped
7 | (7/7) Accurately ripped
8 | (7/7) Accurately ripped
9 | (7/7) Accurately ripped
10 | (7/7) Accurately ripped
11 | (7/7) Accurately ripped
12 | (7/7) Accurately ripped
13 | (7/7) Accurately ripped
14 | (7/7) Accurately ripped
15 | (7/7) Accurately ripped
16 | (7/7) Accurately ripped
17 | (7/7) Accurately ripped
18 | (7/7) Accurately ripped
19 | (7/7) Accurately ripped


==== Log checksum B529F4C38A4385CD7221927DF2F7BEE281ED2D640A03886FADA3940808FE0F1A ====

[CUETools log; Date: 10.07.2023 15:44:35; Version: 2.1.4]
[CTDB TOCID: Zqb.MemA94cRxyeVkvy5tzianww-] found.
Track | CTDB Status
1 | (8/8) Accurately ripped
2 | (8/8) Accurately ripped
3 | (8/8) Accurately ripped
4 | (8/8) Accurately ripped
5 | (8/8) Accurately ripped
6 | (8/8) Accurately ripped
7 | (8/8) Accurately ripped
8 | (8/8) Accurately ripped
9 | (8/8) Accurately ripped
10 | (8/8) Accurately ripped
11 | (8/8) Accurately ripped
12 | (8/8) Accurately ripped
13 | (8/8) Accurately ripped
14 | (8/8) Accurately ripped
15 | (8/8) Accurately ripped
16 | (8/8) Accurately ripped
17 | (8/8) Accurately ripped
18 | (8/8) Accurately ripped
19 | (8/8) Accurately ripped
[AccurateRip ID: 0031fcde-02d19bcf-1c128913] found.
Track [ CRC | V2 ] Status
01 [6a3ee360|637fd692] (0+4/4) Accurately ripped
02 [fa1d8c8d|c373df97] (0+4/4) Accurately ripped
03 [90f00011|ea7b7181] (0+4/4) Accurately ripped
04 [6cbb695e|18d4ff8c] (0+4/4) Accurately ripped
05 [eda13976|799d7699] (0+4/4) Accurately ripped
06 [4c2d488d|4c59261f] (0+4/4) Accurately ripped
07 [86722860|ab5280ab] (0+4/4) Accurately ripped
08 [b7034be5|a61cb9da] (0+4/4) Accurately ripped
09 [6662a4cd|d751c8f5] (0+4/4) Accurately ripped
10 [662cc4ee|463a07a3] (0+4/4) Accurately ripped
11 [be9ccfa2|4948d971] (0+4/4) Accurately ripped
12 [3673e2c9|f4159f1f] (0+4/4) Accurately ripped
13 [5be429ef|cd98d9d5] (0+4/4) Accurately ripped
14 [98c8ca60|21170409] (0+4/4) Accurately ripped
15 [db99c5f0|aa7c265f] (0+4/4) Accurately ripped
16 [52cce0ab|3d7f485b] (0+4/4) Accurately ripped
17 [6d545b0b|992e5d8f] (0+4/4) Accurately ripped
18 [c568666c|b5deecd9] (0+4/4) Accurately ripped
19 [48af8604|173f68fb] (0+4/4) Accurately ripped

Track Peak [ CRC32 ] [W/O NULL] [ LOG ]
– 100,0 [69CA08B7] [B3CE3428]
01 61,9 [927EC571] [1AF55961] CRC32
02 69,1 [634528AA] [6249C88D] CRC32
03 71,7 [D1356A0B] [D638ED9B] CRC32
04 64,1 [341775C7] [C38FB745] CRC32
05 53,1 [A172AD56] [0E7B2E36] CRC32
06 57,1 [CD646C4C] [6960ECFD] CRC32
07 63,4 [7BD2402C] [8DBF5EE7] CRC32
08 75,7 [AAC900C6] [D5DD28AE] CRC32
09 100,0 [21B41C12] [69585867] CRC32
10 90,6 [A8D53A46] [4743B379] CRC32
11 72,4 [37E2FECF] [26AE6C90] CRC32
12 74,3 [B280A45D] [7756C243] CRC32
13 73,6 [41E69881] [F7CCE8A9] CRC32
14 79,9 [2CC84BE3] [63F4588F] CRC32
15 73,0 [BE2D2CA5] [E6471BA4] CRC32
16 78,9 [7E0D067B] [6A116E0A] CRC32
17 82,2 [9778E8C7] [60A0C68C] CRC32
18 80,0 [98FBF8BE] [6292370F] CRC32
19 82,2 [BD78F1B1] [9BDD0B21] CRC32

Exact Audio Copy V1.3 from 2. September 2016

EAC extraction logfile from 7. July 2023, 15:22

Charlie Byrd / Four Classic Albums - CD2

Used drive : TSSTcorpCDDVDW SH-224FB Adapter: 1 ID: 0

Read mode : Secure
Utilize accurate stream : Yes
Defeat audio cache : Yes
Make use of C2 pointers : No

Read offset correction : 6
Overread into Lead-In and Lead-Out : No
Fill up missing offset samples with silence : Yes
Delete leading and trailing silent blocks : No
Null samples used in CRC calculations : Yes
Used interface : Native Win32 interface for Win NT & 2000
Gap handling : Appended to previous track

Used output format : User Defined Encoder
Selected bitrate : 128 kBit/s
Quality : High
Add ID3 tag : No
Command line compressor : C:\Program Files (x86)\Exact Audio Copy\Flac\flac.exe
Additional command line options : -V -8 -T "Genre=%genre%" -T "Artist=%artist%" -T "Title=%title%" -T "Album=%albumtitle%" -T "Date=%year%" -T "Tracknumber=%tracknr%" -T "Comment=%comment%" %source%


TOC of the extracted CD

Track | Start | Length | Start sector | End sector
––––––––––––––––––––––––––––-
1 | 0:00.00 | 4:28.32 | 0 | 20131
2 | 4:28.32 | 4:43.02 | 20132 | 41358
3 | 9:11.34 | 4:30.71 | 41359 | 61679
4 | 13:42.30 | 3:33.68 | 61680 | 77722
5 | 17:16.23 | 4:16.04 | 77723 | 96926
6 | 21:32.27 | 3:24.61 | 96927 | 112287
7 | 24:57.13 | 3:29.21 | 112288 | 127983
8 | 28:26.34 | 4:39.11 | 127984 | 148919
9 | 33:05.45 | 1:57.57 | 148920 | 157751
10 | 35:03.27 | 2:54.41 | 157752 | 170842
11 | 37:57.68 | 3:45.70 | 170843 | 187787
12 | 41:43.63 | 3:03.20 | 187788 | 201532
13 | 44:47.08 | 2:21.48 | 201533 | 212155
14 | 47:08.56 | 2:45.16 | 212156 | 224546
15 | 49:53.72 | 3:25.40 | 224547 | 239961
16 | 53:19.37 | 1:48.27 | 239962 | 248088
17 | 55:07.64 | 5:32.58 | 248089 | 273046
18 | 60:40.47 | 3:51.32 | 273047 | 290403
19 | 64:32.04 | 9:44.04 | 290404 | 334207
20 | 74:16.08 | 5:26.07 | 334208 | 358664


Track 1

Filename C:\ssagwebster\Charlie Byrd - Four Classic Albums (2CD, 2014)\CD2\01. Bobby In Bassoonville.wav

Pre-gap length 0:00:02.00

Peak level 92.5 %
Extraction speed 1.9 X
Track quality 100.0 %
Test CRC 3591F3B3
Copy CRC 3591F3B3
Accurately ripped (confidence 4) [51617F89] (AR v2)
Copy OK

Track 2

Filename C:\ssagwebster\Charlie Byrd - Four Classic Albums (2CD, 2014)\CD2\02. Satin Doll.wav

Pre-gap length 0:00:03.58

Peak level 81.2 %
Extraction speed 2.2 X
Track quality 100.0 %
Test CRC 98544F91
Copy CRC 98544F91
Accurately ripped (confidence 4) [E7B706C7] (AR v2)
Copy OK

Track 3

Filename C:\ssagwebster\Charlie Byrd - Four Classic Albums (2CD, 2014)\CD2\03. Tri-X.wav

Pre-gap length 0:00:03.58

Peak level 84.6 %
Extraction speed 2.3 X
Track quality 100.0 %
Test CRC 6E0B8E0D
Copy CRC 6E0B8E0D
Accurately ripped (confidence 4) [B63F72FA] (AR v2)
Copy OK

Track 4

Filename C:\ssagwebster\Charlie Byrd - Four Classic Albums (2CD, 2014)\CD2\04. Conversation Piece.wav

Pre-gap length 0:00:03.58

Peak level 69.9 %
Extraction speed 2.4 X
Track quality 100.0 %
Test CRC 0CFEF7C6
Copy CRC 0CFEF7C6
Accurately ripped (confidence 4) [D6BFBB50] (AR v2)
Copy OK

Track 5

Filename C:\ssagwebster\Charlie Byrd - Four Classic Albums (2CD, 2014)\CD2\05. What's New.wav

Pre-gap length 0:00:03.58

Peak level 91.1 %
Extraction speed 2.6 X
Track quality 100.0 %
Test CRC FE3187FF
Copy CRC FE3187FF
Accurately ripped (confidence 4) [E89F4C45] (AR v2)
Copy OK

Track 6

Filename C:\ssagwebster\Charlie Byrd - Four Classic Albums (2CD, 2014)\CD2\06. Stompin' At The Savoy.wav

Pre-gap length 0:00:03.58

Peak level 71.6 %
Extraction speed 2.1 X
Track quality 99.9 %
Test CRC C87E0826
Copy CRC C87E0826
Accurately ripped (confidence 4) [309C2822] (AR v2)
Copy OK

Track 7

Filename C:\ssagwebster\Charlie Byrd - Four Classic Albums (2CD, 2014)\CD2\07. Don't Explain.wav

Pre-gap length 0:00:03.58

Peak level 77.6 %
Extraction speed 2.7 X
Track quality 100.0 %
Test CRC 74CBB5CE
Copy CRC 74CBB5CE
Accurately ripped (confidence 4) [F8936F84] (AR v2)
Copy OK

Track 8

Filename C:\ssagwebster\Charlie Byrd - Four Classic Albums (2CD, 2014)\CD2\08. Buck's Hill.wav

Pre-gap length 0:00:03.58

Peak level 90.2 %
Extraction speed 3.0 X
Track quality 100.0 %
Test CRC 2F83FAF6
Copy CRC 2F83FAF6
Accurately ripped (confidence 4) [C4DF8D7D] (AR v2)
Copy OK

Track 9

Filename C:\ssagwebster\Charlie Byrd - Four Classic Albums (2CD, 2014)\CD2\09. Taking A Chance On Love.wav

Pre-gap length 0:00:03.58

Peak level 83.3 %
Extraction speed 2.6 X
Track quality 100.0 %
Test CRC 8BFAE972
Copy CRC 8BFAE972
Accurately ripped (confidence 4) [C922DD3E] (AR v2)
Copy OK

Track 10

Filename C:\ssagwebster\Charlie Byrd - Four Classic Albums (2CD, 2014)\CD2\10. Moonlight In Vermont.wav

Pre-gap length 0:00:03.58

Peak level 74.5 %
Extraction speed 2.9 X
Track quality 100.0 %
Test CRC CB2D6C98
Copy CRC CB2D6C98
Accurately ripped (confidence 4) [688254CB] (AR v2)
Copy OK

Track 11

Filename C:\ssagwebster\Charlie Byrd - Four Classic Albums (2CD, 2014)\CD2\11. Speak Low.wav

Pre-gap length 0:00:03.58

Peak level 95.8 %
Extraction speed 3.1 X
Track quality 100.0 %
Test CRC 3663CD81
Copy CRC 3663CD81
Accurately ripped (confidence 4) [AC44409D] (AR v2)
Copy OK

Track 12

Filename C:\ssagwebster\Charlie Byrd - Four Classic Albums (2CD, 2014)\CD2\12. Nuages.wav

Pre-gap length 0:00:03.58

Peak level 85.2 %
Extraction speed 2.3 X
Track quality 99.9 %
Test CRC 3B881BF6
Copy CRC 3B881BF6
Accurately ripped (confidence 4) [006E79A1] (AR v2)
Copy OK

Track 13

Filename C:\ssagwebster\Charlie Byrd - Four Classic Albums (2CD, 2014)\CD2\13. Everything I've Got Belongs To You.wav

Pre-gap length 0:00:03.58

Peak level 82.1 %
Extraction speed 3.0 X
Track quality 100.0 %
Test CRC A368A297
Copy CRC A368A297
Accurately ripped (confidence 4) [2D39FBEC] (AR v2)
Copy OK

Track 14

Filename C:\ssagwebster\Charlie Byrd - Four Classic Albums (2CD, 2014)\CD2\14. Makin' Whoopee.wav

Pre-gap length 0:00:03.58

Peak level 95.2 %
Extraction speed 3.2 X
Track quality 100.0 %
Test CRC 95C99700
Copy CRC 95C99700
Accurately ripped (confidence 4) [A6CC08A0] (AR v2)
Copy OK

Track 15

Filename C:\ssagwebster\Charlie Byrd - Four Classic Albums (2CD, 2014)\CD2\15. Django.wav

Pre-gap length 0:00:03.58

Peak level 80.7 %
Extraction speed 2.6 X
Track quality 99.9 %
Test CRC 7EC3CF3A
Copy CRC 7EC3CF3A
Accurately ripped (confidence 4) [2030C5A0] (AR v2)
Copy OK

Track 16

Filename C:\ssagwebster\Charlie Byrd - Four Classic Albums (2CD, 2014)\CD2\16. Nice Work If You Can Get It.wav

Pre-gap length 0:00:03.58

Peak level 90.7 %
Extraction speed 3.0 X
Track quality 100.0 %
Test CRC 3EA2FB6D
Copy CRC 3EA2FB6D
Accurately ripped (confidence 4) [2A568B40] (AR v2)
Copy OK

Track 17

Filename C:\ssagwebster\Charlie Byrd - Four Classic Albums (2CD, 2014)\CD2\17. The House Of The Rising Sun.wav

Pre-gap length 0:00:03.58

Peak level 94.2 %
Extraction speed 3.7 X
Track quality 100.0 %
Test CRC 117C2543
Copy CRC 117C2543
Accurately ripped (confidence 4) [5C3F7676] (AR v2)
Copy OK

Track 18

Filename C:\ssagwebster\Charlie Byrd - Four Classic Albums (2CD, 2014)\CD2\18. Ring Them Harmonics.wav

Pre-gap length 0:00:03.58

Peak level 99.9 %
Extraction speed 2.8 X
Track quality 99.9 %
Test CRC D407202C
Copy CRC D407202C
Accurately ripped (confidence 4) [95AF4589] (AR v2)
Copy OK

Track 19

Filename C:\ssagwebster\Charlie Byrd - Four Classic Albums (2CD, 2014)\CD2\19. Taboo.wav

Pre-gap length 0:00:03.58

Peak level 94.3 %
Extraction speed 4.2 X
Track quality 100.0 %
Test CRC 325FC1B4
Copy CRC 325FC1B4
Accurately ripped (confidence 4) [8A929D0A] (AR v2)
Copy OK

Track 20

Filename C:\ssagwebster\Charlie Byrd - Four Classic Albums (2CD, 2014)\CD2\20. To Ginny.wav

Pre-gap length 0:00:03.58

Peak level 76.7 %
Extraction speed 4.1 X
Track quality 100.0 %
Test CRC 67F586F6
Copy CRC 67F586F6
Accurately ripped (confidence 4) [F8AA9C09] (AR v2)
Copy OK


All tracks accurately ripped

No errors occurred

End of status report

–– CUETools DB Plugin V2.1.6

[CTDB TOCID: v00QPMFo_FUnz5w_kuiklDwosNI-] found
Submit result: v00QPMFo_FUnz5w_kuiklDwosNI- has been confirmed
Track | CTDB Status
1 | (8/8) Accurately ripped
2 | (8/8) Accurately ripped
3 | (8/8) Accurately ripped
4 | (8/8) Accurately ripped
5 | (8/8) Accurately ripped
6 | (8/8) Accurately ripped
7 | (8/8) Accurately ripped
8 | (8/8) Accurately ripped
9 | (8/8) Accurately ripped
10 | (8/8) Accurately ripped
11 | (8/8) Accurately ripped
12 | (8/8) Accurately ripped
13 | (8/8) Accurately ripped
14 | (8/8) Accurately ripped
15 | (8/8) Accurately ripped
16 | (8/8) Accurately ripped
17 | (8/8) Accurately ripped
18 | (8/8) Accurately ripped
19 | (8/8) Accurately ripped
20 | (8/8) Accurately ripped


==== Log checksum 1692965504E76E29030034FFEEDB93AC942C489EC1FA18967013BE57E616EB91 ====

[CUETools log; Date: 10.07.2023 15:45:58; Version: 2.1.4]
[CTDB TOCID: v00QPMFo_FUnz5w_kuiklDwosNI-] found.
Track | CTDB Status
1 | (9/9) Accurately ripped
2 | (9/9) Accurately ripped
3 | (9/9) Accurately ripped
4 | (9/9) Accurately ripped
5 | (9/9) Accurately ripped
6 | (9/9) Accurately ripped
7 | (9/9) Accurately ripped
8 | (9/9) Accurately ripped
9 | (9/9) Accurately ripped
10 | (9/9) Accurately ripped
11 | (9/9) Accurately ripped
12 | (9/9) Accurately ripped
13 | (9/9) Accurately ripped
14 | (9/9) Accurately ripped
15 | (9/9) Accurately ripped
16 | (9/9) Accurately ripped
17 | (9/9) Accurately ripped
18 | (9/9) Accurately ripped
19 | (9/9) Accurately ripped
20 | (9/9) Accurately ripped
[AccurateRip ID: 0036b7d7-031803f6-3912ae14] found.
Track [ CRC | V2 ] Status
01 [e142ec2a|51617f89] (0+4/4) Accurately ripped
02 [3afcad49|e7b706c7] (0+4/4) Accurately ripped
03 [07a3b889|b63f72fa] (0+4/4) Accurately ripped
04 [506380d1|d6bfbb50] (0+4/4) Accurately ripped
05 [b9a16a10|e89f4c45] (0+4/4) Accurately ripped
06 [06c6f0dd|309c2822] (0+4/4) Accurately ripped
07 [d2a03220|f8936f84] (0+4/4) Accurately ripped
08 [88febf6c|c4df8d7d] (0+4/4) Accurately ripped
09 [2ab95e01|c922dd3e] (0+4/4) Accurately ripped
10 [d6f8e5ef|688254cb] (0+4/4) Accurately ripped
11 [3578ae09|ac44409d] (0+4/4) Accurately ripped
12 [f047a583|006e79a1] (0+4/4) Accurately ripped
13 [8ab0c679|2d39fbec] (0+4/4) Accurately ripped
14 [0d9ea7dd|a6cc08a0] (0+4/4) Accurately ripped
15 [d02dfd77|2030c5a0] (0+4/4) Accurately ripped
16 [7d2e4892|2a568b40] (0+4/4) Accurately ripped
17 [4441ea77|5c3f7676] (0+4/4) Accurately ripped
18 [8b4bc6b4|95af4589] (0+4/4) Accurately ripped
19 [1b3a3608|8a929d0a] (0+4/4) Accurately ripped
20 [8f0ac046|f8aa9c09] (0+4/4) Accurately ripped

Track Peak [ CRC32 ] [W/O NULL] [ LOG ]
– 99,9 [251872C0] [D63C410C]
01 92,5 [3591F3B3] [DEC5B529] CRC32
02 81,2 [98544F91] [E1C8DC6E] CRC32
03 84,6 [6E0B8E0D] [9608E94E] CRC32
04 69,9 [0CFEF7C6] [44447511] CRC32
05 91,1 [FE3187FF] [8281050D] CRC32
06 71,6 [C87E0826] [DFCF86B9] CRC32
07 77,6 [74CBB5CE] [8BCB5023] CRC32
08 90,2 [2F83FAF6] [296761EA] CRC32
09 83,3 [8BFAE972] [D05B678D] CRC32
10 74,5 [CB2D6C98] [1C3F16B2] CRC32
11 95,8 [3663CD81] [44A5E44D] CRC32
12 85,2 [3B881BF6] [5AAA635D] CRC32
13 82,1 [A368A297] [956FCAEC] CRC32
14 95,2 [95C99700] [D28181C0] CRC32
15 80,7 [7EC3CF3A] [B2D04692] CRC32
16 90,7 [3EA2FB6D] [4B496A54] CRC32
17 94,2 [117C2543] [3D46EA6F] CRC32
18 99,9 [D407202C] [91981ACA] CRC32
19 94,3 [325FC1B4] [111CB86D] CRC32
20 76,7 [67F586F6] [E0419DAB] CRC32

Thanks to ssagwebster