Tags
Language
Tags
June 2024
Su Mo Tu We Th Fr Sa
26 27 28 29 30 31 1
2 3 4 5 6 7 8
9 10 11 12 13 14 15
16 17 18 19 20 21 22
23 24 25 26 27 28 29
30 1 2 3 4 5 6

Charlie Byrd - Charlie Byrd & The Washington Guitar Quintet (1992)

Posted By: gribovar
Charlie Byrd - Charlie Byrd & The Washington Guitar Quintet (1992)

Charlie Byrd - Charlie Byrd & The Washington Guitar Quintet (1992)
EAC Rip | APE (image+.cue+log) - 258 MB | Covers - 63 MB
Genre: Guitar Jazz, Folk | RAR 3% Rec. | Label: Concord Records (CCD-42014)

Romanticism, Afro-Latin voicings and classical stylings are the three primary components of this Charlie Byrd's release. It blends his playing with that of Carlos Barbosa-Lima, Jeffrey Meyerriecks, Myrna Sislen and Larry Snitzler, and the quintet members expertly complement and contrast each other on a program of American popular standards, compositions by Vivaldi, Mozart, Antonio Carlos Jobim and three superb interpretations of the Bix Beiderbecke masterpieces "In A Mist," "Candlelights" and "In The Dark." It's more structured than improvisatory, but the playing is so compelling and exquisite that it should appeal to both guitar lovers and music fans generally.
Tracklist:
01. Sarambeque
02. Espanoleta De Camara
03. Django
04. Swing 39
05. Derradeira Primavera
06. Correnteza
07. Tears
08. El Noy De La Mare
09. Nuages
10. Concierto De Aranjuez/Spain
11. Ashokan Farewell
12. Easy To Love
13. I'm A Stranger Here Myself
14. Speak Low
15. Cavatina

Total time: 59:18

Exact Audio Copy V0.99 prebeta 4 from 23. January 2008

Отчёт EAC об извлечении, выполненном 2. сентября 2008, 17:52

Charlie Byrd / Charlie Byrd & washington guitar..

Дисковод: PIONEER DVD-RW DVR-108 Adapter: 4 ID: 1

Режим чтения : Достоверность
Использование точного потока : Да
Отключение кэша аудио : Да
Использование указателей C2 : Нет

Коррекция смещения при чтении : 48
Способность читать области Lead-in и Lead-out : Нет
Заполнение пропущенных сэмплов тишиной : Да
Удаление блоков с тишиной в начале и конце : Нет
При вычислениях CRC использовались нулевые сэмплы : Да
Интерфейс : Встроенный Win32-интерфейс для Win NT/2000

Выходной формат : Внутренние WAV-операции
Формат сэмплов : 44.100 Гц; 16 бит; стерео


TOC извлечённого CD

Трек | Старт | Длительность | Начальный сектор | Конечный сектор
––––––––––––––––––––––––––––––––––-
1 | 0:00.00 | 2:35.60 | 0 | 11684
2 | 2:35.60 | 3:36.25 | 11685 | 27909
3 | 6:12.10 | 5:00.37 | 27910 | 50446
4 | 11:12.47 | 2:56.18 | 50447 | 63664
5 | 14:08.65 | 2:12.30 | 63665 | 73594
6 | 16:21.20 | 2:35.67 | 73595 | 85286
7 | 18:57.12 | 3:29.20 | 85287 | 100981
8 | 22:26.32 | 5:23.03 | 100982 | 125209
9 | 27:49.35 | 3:33.02 | 125210 | 141186
10 | 31:22.37 | 4:48.73 | 141187 | 162859
11 | 36:11.35 | 3:31.07 | 162860 | 178691
12 | 39:42.42 | 4:40.30 | 178692 | 199721
13 | 44:22.72 | 5:43.43 | 199722 | 225489
14 | 50:06.40 | 4:54.60 | 225490 | 247599
15 | 55:01.25 | 4:16.62 | 247600 | 266861


Характеристики диапазона извлечения и сообщения об ошибках

Выбранный диапазон

Имя файла J:\New Torrents\Charlie Byrd - Charlie Byrd & washington guitar\Charlie Byrd - Charlie Byrd & washington guitar…wav

Пиковый уровень 98.4 %
Качество диапазона 99.9 %
CRC копии AF7E3D88
Копирование… OK

Ошибок не произошло


AccurateRip: сводка

Трек 1 нет в базе данных
Трек 2 нет в базе данных
Трек 3 нет в базе данных
Трек 4 нет в базе данных
Трек 5 нет в базе данных
Трек 6 нет в базе данных
Трек 7 нет в базе данных
Трек 8 нет в базе данных
Трек 9 нет в базе данных
Трек 10 нет в базе данных
Трек 11 нет в базе данных
Трек 12 нет в базе данных
Трек 13 нет в базе данных
Трек 14 нет в базе данных
Трек 15 нет в базе данных

Ни одного трека нет в базе AccurateRip

Конец отчёта

[CUETools log; Date: 29.01.2022 14:14:27; Version: 2.1.4]
[CTDB TOCID: 8fVGl2TbJ1PGnv7qGqMLg7arZpE-] found.
Track | CTDB Status
1 | (23/23) Accurately ripped
2 | (23/23) Accurately ripped
3 | (23/23) Accurately ripped
4 | (23/23) Accurately ripped
5 | (23/23) Accurately ripped
6 | (23/23) Accurately ripped
7 | (23/23) Accurately ripped
8 | (23/23) Accurately ripped
9 | (23/23) Accurately ripped
10 | (23/23) Accurately ripped
11 | (23/23) Accurately ripped
12 | (23/23) Accurately ripped
13 | (23/23) Accurately ripped
14 | (23/23) Accurately ripped
15 | (23/23) Accurately ripped
[AccurateRip ID: 001decea-015a261b-d50de60f] found.
Track [ CRC | V2 ] Status
01 [d5aa6378|98c03da0] (02+00/14) Accurately ripped
02 [1b0b8240|220d585c] (02+00/14) Accurately ripped
03 [98a7a226|6d48e5df] (02+00/14) Accurately ripped
04 [f3b31395|deb40c8f] (02+00/14) Accurately ripped
05 [66144405|d59ebaf7] (02+00/14) Accurately ripped
06 [8d7125f4|433cf3a7] (02+00/14) Accurately ripped
07 [35c66d8a|08484bd7] (02+00/14) Accurately ripped
08 [f1e61852|57f42434] (02+00/14) Accurately ripped
09 [247e1d7f|25b7fbe6] (02+00/14) Accurately ripped
10 [44efd4a5|902ae58a] (02+00/14) Accurately ripped
11 [ac88f90f|6e2c8d01] (02+00/14) Accurately ripped
12 [690913f8|ce3915ab] (02+00/14) Accurately ripped
13 [176e0a23|077bbcad] (02+00/14) Accurately ripped
14 [3c5a90c7|aec6d2ae] (02+00/14) Accurately ripped
15 [21a4a51f|59c50341] (02+00/14) Accurately ripped
Offsetted by 746:
01 [8361e0b9] (00/14) No match (V2 was not tested)
02 [473cef0a] (00/14) No match (V2 was not tested)
03 [2decd0ab] (00/14) No match (V2 was not tested)
04 [d4cc7199] (00/14) No match (V2 was not tested)
05 [69a36871] (00/14) No match (V2 was not tested)
06 [e6863c06] (00/14) No match (V2 was not tested)
07 [5cdb9028] (00/14) No match (V2 was not tested)
08 [1f787a37] (00/14) No match (V2 was not tested)
09 [f9f27814] (00/14) No match (V2 was not tested)
10 [d2d510cb] (00/14) No match (V2 was not tested)
11 [0c2e6f95] (00/14) No match (V2 was not tested)
12 [7c950c7e] (00/14) No match (V2 was not tested)
13 [e660d020] (00/14) No match (V2 was not tested)
14 [07becf42] (00/14) No match (V2 was not tested)
15 [c16bea3c] (00/14) No match (V2 was not tested)
Offsetted by 866:
01 [84426e22] (00/14) No match (V2 was not tested)
02 [d87b92d0] (00/14) No match (V2 was not tested)
03 [a257ec75] (00/14) No match (V2 was not tested)
04 [ad33597d] (00/14) No match (V2 was not tested)
05 [fa6e5da8] (00/14) No match (V2 was not tested)
06 [3c7b78c9] (00/14) No match (V2 was not tested)
07 [39a66e85] (00/14) No match (V2 was not tested)
08 [8723cd64] (00/14) No match (V2 was not tested)
09 [b4f28efd] (00/14) No match (V2 was not tested)
10 [8eac4ef5] (00/14) No match (V2 was not tested)
11 [c930267a] (00/14) No match (V2 was not tested)
12 [cb1d65e4] (00/14) No match (V2 was not tested)
13 [6dca4c51] (00/14) No match (V2 was not tested)
14 [ddb45413] (00/14) No match (V2 was not tested)
15 [7f226274] (00/14) No match (V2 was not tested)
Offsetted by 1410:
01 [cd284596] (00/14) No match (V2 was not tested)
02 [a2d0ae94] (00/14) No match (V2 was not tested)
03 [65086e4b] (00/14) No match (V2 was not tested)
04 [b74866d6] (00/14) No match (V2 was not tested)
05 [15ca338c] (00/14) No match (V2 was not tested)
06 [ff4207ef] (00/14) No match (V2 was not tested)
07 [0c9f3605] (00/14) No match (V2 was not tested)
08 [a24e032e] (00/14) No match (V2 was not tested)
09 [f8331225] (00/14) No match (V2 was not tested)
10 [846dfbf8] (00/14) No match (V2 was not tested)
11 [113cf55a] (00/14) No match (V2 was not tested)
12 [0173d620] (00/14) No match (V2 was not tested)
13 [243caf67] (00/14) No match (V2 was not tested)
14 [471e01c6] (00/14) No match (V2 was not tested)
15 [a6a4d142] (00/14) No match (V2 was not tested)
Offsetted by 2533:
01 [2cd8aaf1] (00/14) No match (V2 was not tested)
02 [81e79413] (00/14) No match (V2 was not tested)
03 [66a936d0] (00/14) No match (V2 was not tested)
04 [598a8da7] (00/14) No match (V2 was not tested)
05 [92be8e91] (00/14) No match (V2 was not tested)
06 [3fc67a7b] (00/14) No match (V2 was not tested)
07 [8583e2c0] (00/14) No match (V2 was not tested)
08 [74fcf253] (00/14) No match (V2 was not tested)
09 [20af1293] (00/14) No match (V2 was not tested)
10 [7e172f7d] (00/14) No match (V2 was not tested)
11 [2cbdf648] (00/14) No match (V2 was not tested)
12 [3c183b9f] (00/14) No match (V2 was not tested)
13 [6b6f6848] (00/14) No match (V2 was not tested)
14 [c9a03fae] (00/14) No match (V2 was not tested)
15 [91f71344] (00/14) No match (V2 was not tested)

Track Peak [ CRC32 ] [W/O NULL] [ LOG ]
– 98,4 [AF7E3D88] [C31582DC] CRC32
01 90,1 [0BAD50DE] [D71B35B0]
02 92,3 [AC465B86] [4BD4B718]
03 83,1 [BB81556C] [D9C9B1D4]
04 89,8 [CBA29BD8] [D8AFE7C0]
05 68,9 [B7117B78] [9CE0090E]
06 50,6 [862C5C58] [4E3BBBBA]
07 84,8 [D4FDA734] [3CC8AC0A]
08 84,6 [43290E9D] [1F686222]
09 76,7 [39B4FBA8] [C906F81F]
10 96,7 [2234068A] [B374524E]
11 69,5 [07CABE7B] [A178862B]
12 87,5 [79011ECD] [01DE3099]
13 98,4 [4F661421] [0DD9E464]
14 98,4 [203D6333] [B7DD8A8A]
15 80,3 [7D5776DA] [60C0F923]

Thanks to Uncle Remus