Tags
Language
Tags

Charlie Haden & Pat Metheny - Beyond The Missouri Sky (1997) {Polydor}

Posted By:
Charlie Haden & Pat Metheny - Beyond The Missouri Sky (1997) {Polydor}

Charlie Haden & Pat Metheny - Beyond The Missouri Sky (1997) {Polydor}
EAC 1.0b3 | FLAC tracks level 8 | Cue+Log+M3U | Full Scans 300dpi | 319MB + 5% Recovery
MP3 CBR 320 Kbps | 159MB + 5% Recovery
Genre: Jazz
Charlie Haden & Pat Metheny - Beyond The Missouri Sky (1997) {Polydor}

Beyond the Missouri Sky (Short Stories) is a jazz album by Charlie Haden and Pat Metheny, two musicians who come from Missouri. The album was released by Verve Records on February 25, 1997. At the 40th Grammy Awards, they were awarded (Haden's first and Metheny's tenth) the Grammy for Best Jazz Instrumental Performance.
Track List
01. Waltz for Ruth (Haden) 4:28
02. Our Spanish Love Song (Haden) 5:40
03. Message to a Friend (Metheny) 6:13
04. Two for the Road (Bricusse, Mancini) 5:16
05. First Song (Haden, Lincoln) 6:37
06. The Moon Is a Harsh Mistress (Webb) 4:05
07. The Precious Jewel (Acuff) 3:47
08. He's Gone Away (Traditional) 4:18
09. The Moon Song (Mandel) 6:56
10. Tears of Rain (Metheny) 5:30
11. Cinema Paradiso (Love Theme) (Morricone, Morricone) 3:35
12. Cinema Paradiso (Main Theme) (Morricone) 4:24
13. Spiritual (Coltrane, Haden, Haden) 8:22

musicians
Charlie Haden - bass
Pat Metheny - acoustic guitars, all other instruments

Produced by Charlie Haden and Pat Metheny


Exact Audio Copy V1.0 beta 3 from 29. August 2011

EAC extraction logfile from 14. March 2014, 13:44

Charlie Haden & Pat Metheny / Beyond The Missouri Sky

Used drive : HL-DT-STDVD-RAM GH22NP20 Adapter: 0 ID: 0

Read mode : Secure
Utilize accurate stream : Yes
Defeat audio cache : Yes
Make use of C2 pointers : No

Read offset correction : 102
Overread into Lead-In and Lead-Out : No
Fill up missing offset samples with silence : Yes
Delete leading and trailing silent blocks : No
Null samples used in CRC calculations : Yes
Used interface : Native Win32 interface for Win NT & 2000
Gap handling : Appended to previous track

Used output format : User Defined Encoder
Selected bitrate : 1024 kBit/s
Quality : High
Add ID3 tag : No
Command line compressor : C:\Program Files\Exact Audio Copy\Flac\flac.exe
Additional command line options : -V -8 -T "Genre=%genre%" -T "Artist=%artist%" -T "Title=%title%" -T "Album=%albumtitle%" -T "Date=%year%" -T "Tracknumber=%tracknr%" -T "Comment=%comment%" %source%


TOC of the extracted CD

Track | Start | Length | Start sector | End sector
––––––––––––––––––––––––––––-
1 | 0:00.00 | 4:28.72 | 0 | 20171
2 | 4:28.72 | 5:42.00 | 20172 | 45821
3 | 10:10.72 | 6:13.28 | 45822 | 73824
4 | 16:24.25 | 5:17.47 | 73825 | 97646
5 | 21:41.72 | 6:40.18 | 97647 | 127664
6 | 28:22.15 | 4:05.35 | 127665 | 146074
7 | 32:27.50 | 3:48.00 | 146075 | 163174
8 | 36:15.50 | 4:18.00 | 163175 | 182524
9 | 40:33.50 | 6:58.57 | 182525 | 213931
10 | 47:32.32 | 5:32.33 | 213932 | 238864
11 | 53:04.65 | 3:36.45 | 238865 | 255109
12 | 56:41.35 | 4:27.05 | 255110 | 275139
13 | 61:08.40 | 8:20.60 | 275140 | 312699


Track 1

Filename D:\music\Musicgate's rips\Charlie Haden & Pat Metheny - Beyond The Missouri Sky - 1997 (Verve 314 537 130-2)\01 - Waltz For Ruth.wav

Pre-gap length 0:00:02.00

Peak level 99.8 %
Extraction speed 1.8 X
Track quality 100.0 %
Test CRC 594B287B
Copy CRC 594B287B
Accurately ripped (confidence 12) [155B0D59] (AR v2)
Copy OK

Track 2

Filename D:\music\Musicgate's rips\Charlie Haden & Pat Metheny - Beyond The Missouri Sky - 1997 (Verve 314 537 130-2)\02 - Our Spanish Love Song.wav

Pre-gap length 0:00:01.21

Peak level 99.8 %
Extraction speed 2.1 X
Track quality 100.0 %
Test CRC 020FA580
Copy CRC 020FA580
Accurately ripped (confidence 14) [D2B48AFA] (AR v2)
Copy OK

Track 3

Filename D:\music\Musicgate's rips\Charlie Haden & Pat Metheny - Beyond The Missouri Sky - 1997 (Verve 314 537 130-2)\03 - Message to a Friend.wav

Pre-gap length 0:00:01.65

Peak level 96.3 %
Extraction speed 2.3 X
Track quality 100.0 %
Test CRC F0EA3111
Copy CRC F0EA3111
Accurately ripped (confidence 14) [C82923D0] (AR v2)
Copy OK

Track 4

Filename D:\music\Musicgate's rips\Charlie Haden & Pat Metheny - Beyond The Missouri Sky - 1997 (Verve 314 537 130-2)\04 - Two for the Road.wav

Pre-gap length 0:00:01.60

Peak level 99.8 %
Extraction speed 2.5 X
Track quality 100.0 %
Test CRC D2A834FE
Copy CRC D2A834FE
Accurately ripped (confidence 14) [29342288] (AR v2)
Copy OK

Track 5

Filename D:\music\Musicgate's rips\Charlie Haden & Pat Metheny - Beyond The Missouri Sky - 1997 (Verve 314 537 130-2)\05 - First Song.wav

Pre-gap length 0:00:02.65

Peak level 99.8 %
Extraction speed 2.7 X
Track quality 100.0 %
Test CRC 4526253F
Copy CRC 4526253F
Accurately ripped (confidence 14) [B1E5CEE2] (AR v2)
Copy OK

Track 6

Filename D:\music\Musicgate's rips\Charlie Haden & Pat Metheny - Beyond The Missouri Sky - 1997 (Verve 314 537 130-2)\06 - The Moon Is a Harsh Mistress.wav

Pre-gap length 0:00:04.30

Peak level 99.8 %
Extraction speed 2.7 X
Track quality 100.0 %
Test CRC 69CF3242
Copy CRC 69CF3242
Accurately ripped (confidence 14) [F15DBB51] (AR v2)
Copy OK

Track 7

Filename D:\music\Musicgate's rips\Charlie Haden & Pat Metheny - Beyond The Missouri Sky - 1997 (Verve 314 537 130-2)\07 - The Precious Jewel.wav

Pre-gap length 0:00:01.38

Peak level 99.8 %
Extraction speed 2.8 X
Track quality 100.0 %
Test CRC D2F53336
Copy CRC D2F53336
Accurately ripped (confidence 14) [2F5CADA5] (AR v2)
Copy OK

Track 8

Filename D:\music\Musicgate's rips\Charlie Haden & Pat Metheny - Beyond The Missouri Sky - 1997 (Verve 314 537 130-2)\08 - He's Gone Away.wav

Peak level 98.8 %
Extraction speed 3.0 X
Track quality 100.0 %
Test CRC 891B0290
Copy CRC 891B0290
Accurately ripped (confidence 14) [9AF93EBE] (AR v2)
Copy OK

Track 9

Filename D:\music\Musicgate's rips\Charlie Haden & Pat Metheny - Beyond The Missouri Sky - 1997 (Verve 314 537 130-2)\09 - The Moon Song.wav

Peak level 99.8 %
Extraction speed 3.3 X
Track quality 100.0 %
Test CRC 1ABE981B
Copy CRC 1ABE981B
Accurately ripped (confidence 13) [80ED4FBD] (AR v2)
Copy OK

Track 10

Filename D:\music\Musicgate's rips\Charlie Haden & Pat Metheny - Beyond The Missouri Sky - 1997 (Verve 314 537 130-2)\10 - Tears of Rain.wav

Pre-gap length 0:00:02.37

Peak level 99.8 %
Extraction speed 3.4 X
Track quality 100.0 %
Test CRC F5B8FF44
Copy CRC F5B8FF44
Accurately ripped (confidence 13) [07BD41AD] (AR v2)
Copy OK

Track 11

Filename D:\music\Musicgate's rips\Charlie Haden & Pat Metheny - Beyond The Missouri Sky - 1997 (Verve 314 537 130-2)\11 - Cinema Paradiso (Love Theme).wav

Pre-gap length 0:00:02.65

Peak level 99.8 %
Extraction speed 3.3 X
Track quality 100.0 %
Test CRC EA0BF35F
Copy CRC EA0BF35F
Accurately ripped (confidence 13) [26C086E0] (AR v2)
Copy OK

Track 12

Filename D:\music\Musicgate's rips\Charlie Haden & Pat Metheny - Beyond The Missouri Sky - 1997 (Verve 314 537 130-2)\12 - Cinema Paradiso (Main Theme).wav

Pre-gap length 0:00:03.08

Peak level 68.1 %
Extraction speed 3.5 X
Track quality 100.0 %
Test CRC 20717937
Copy CRC 20717937
Accurately ripped (confidence 13) [580C397D] (AR v2)
Copy OK

Track 13

Filename D:\music\Musicgate's rips\Charlie Haden & Pat Metheny - Beyond The Missouri Sky - 1997 (Verve 314 537 130-2)\13 - Spiritual.wav

Pre-gap length 0:00:03.08

Peak level 99.8 %
Extraction speed 3.9 X
Track quality 100.0 %
Test CRC 4294C60D
Copy CRC 4294C60D
Accurately ripped (confidence 13) [6D2ADDC0] (AR v2)
Copy OK


All tracks accurately ripped

No errors occurred

End of status report

==== Log checksum FE5A05597936E4A121F1634CB8664AFDE71EBBF10AADD39954E2DE20B6856AF1 ====


––––––––––––––––––––––––––––––––––––––––
Analyzed: Charlie Haden & Pat Metheny / Beyond The Missouri Sky
––––––––––––––––––––––––––––––––––––––––

DR Peak RMS Duration Track
––––––––––––––––––––––––––––––––––––––––
DR14 -0.01 dB -15.59 dB 4:29 01-Waltz For Ruth
DR14 -0.01 dB -15.91 dB 5:42 02-Our Spanish Love Song
DR14 -0.32 dB -18.89 dB 6:13 03-Message to a Friend
DR12 -0.01 dB -14.70 dB 5:18 04-Two for the Road
DR14 -0.01 dB -17.76 dB 6:40 05-First Song
DR13 -0.01 dB -17.38 dB 4:05 06-The Moon Is a Harsh Mistress
DR13 -0.01 dB -16.50 dB 3:48 07-The Precious Jewel
DR16 -0.10 dB -21.11 dB 4:18 08-He's Gone Away
DR12 -0.01 dB -15.07 dB 6:59 09-The Moon Song
DR14 -0.01 dB -17.43 dB 5:32 10-Tears of Rain
DR14 -0.01 dB -16.68 dB 3:37 11-Cinema Paradiso (Love Theme)
DR12 -3.33 dB -20.21 dB 4:27 12-Cinema Paradiso (Main Theme)
DR14 -0.01 dB -17.59 dB 8:21 13-Spiritual
––––––––––––––––––––––––––––––––––––––––

Number of tracks: 13
Official DR value: DR14

Samplerate: 44100 Hz
Channels: 2
Bits per sample: 16
Bitrate: 553 kbps
Codec: FLAC
================================================================================

Charlie Haden & Pat Metheny - Beyond The Missouri Sky (1997) {Polydor}
Charlie Haden & Pat Metheny - Beyond The Missouri Sky (1997) {Polydor}
Charlie Haden & Pat Metheny - Beyond The Missouri Sky (1997) {Polydor}


Thanks to the original ripper