Subcategories
Tags
Language
Tags

Charlie Parker - Swedish Schnapps + The Great Quintet Sessions 1949-51 (1958) [Reissue 1991]

Posted By: gribovar
Charlie Parker - Swedish Schnapps + The Great Quintet Sessions 1949-51 (1958) [Reissue 1991]

Charlie Parker - Swedish Schnapps + The Great Quintet Sessions 1949-51 (1958) [Reissue 1991]
EAC Rip | FLAC (tracks+.cue+log) - 205 MB | MP3 CBR 320 kbps (LAME 3.93) - 123 MB | Covers - 130 MB
Genre: Jazz, Bop | RAR 3% Rec. | Label: Verve (849 393-2)

Musicians like to observe that for all his notoriety as the wellspring of bebop, Charlie "Bird" Parker's music was loaded with the blues. Swedish Schnapps is as good a place as any to make that connection with Parker's music, including as it does two of his most enduring bop heads based on the blues, "Au Privave" and "Blues For Alice." While you wouldn't mistake either composition for a Muddy Waters tune, both relate Bird's off-kilter accents and serpentine melodicism at walking tempos that let you hear what's actually going by, instead of leaving you astonished but bemused. To really drive the point home, there's "K.C. Blues," which finds the altoist at his hollerin' best, and "Lover Man," certainly one of the bluesiest 32-bar standards around.
Tracklist:
01. Si Si
02. Swedish Schnapps (Alt)
03. Swedish Schnapps
04. Back Home Blues (Alt)
05. Back Home Blues
06. Lover Man
07. Blues For Alice
08. Au Privave (Alt)
09. Au Privave
10. She Rote (Alt)
11. She Rote
12. K.C. Blues
13. Star Eyes
14. Segment - Tune X (Bonus track)
15. Diverse - Tune X (Alt) (Bonus track)
16. Passport - Tune Y (Rare) (Bonus track)
17. Passport - Tune Z (Common) (Bonus track)

Total time: 52:16

Exact Audio Copy V0.99 prebeta 5 from 4. May 2009

EAC extraction logfile from 24. September 2010, 11:17

Charlie Parker / Swedish Schnapps

Used drive : SONY BD-ROM BDU-X10S Adapter: 0 ID: 3

Read mode : Secure
Utilize accurate stream : Yes
Defeat audio cache : Yes
Make use of C2 pointers : No

Read offset correction : 79
Overread into Lead-In and Lead-Out : No
Fill up missing offset samples with silence : Yes
Delete leading and trailing silent blocks : No
Null samples used in CRC calculations : Yes
Used interface : Native Win32 interface for Win NT & 2000
Gap handling : Appended to previous track

Used output format : User Defined Encoder
Selected bitrate : 320 kBit/s
Quality : High
Add ID3 tag : No
Command line compressor : C:\Program Files (x86)\Exact Audio Copy\Flac\flac.exe
Additional command line options : -V -8 -T "artist=%a" -T "title=%t" -T "album=%g" -T "date=%y" -T "tracknumber=%n" -T "genre=%m" %s


TOC of the extracted CD

Track | Start | Length | Start sector | End sector
––––––––––––––––––––––––––––-
1 | 0:00.33 | 2:40.12 | 33 | 12044
2 | 2:40.45 | 3:15.63 | 12045 | 26732
3 | 5:56.33 | 3:12.25 | 26733 | 41157
4 | 9:08.58 | 2:37.62 | 41158 | 52994
5 | 11:46.45 | 2:48.25 | 52995 | 65619
6 | 14:34.70 | 3:23.63 | 65620 | 80907
7 | 17:58.58 | 2:50.00 | 80908 | 93657
8 | 20:48.58 | 2:40.62 | 93658 | 105719
9 | 23:29.45 | 2:45.00 | 105720 | 118094
10 | 26:14.45 | 3:10.63 | 118095 | 132407
11 | 29:25.33 | 3:09.00 | 132408 | 146582
12 | 32:34.33 | 3:26.25 | 146583 | 162057
13 | 36:00.58 | 3:38.00 | 162058 | 178407
14 | 39:38.58 | 3:22.25 | 178408 | 193582
15 | 43:01.08 | 3:18.00 | 193583 | 208432
16 | 46:19.08 | 2:57.25 | 208433 | 221732
17 | 49:16.33 | 3:00.12 | 221733 | 235244


Track 1

Filename D:\Media\Music\EAC Rips\Charlie Parker - Swedish Schnapps\01 - Si Si.wav

Pre-gap length 0:00:02.44

Peak level 95.4 %
Track quality 100.0 %
Test CRC BFB86407
Copy CRC BFB86407
Accurately ripped (confidence 4) [0A4F3A07]
Copy OK

Track 2

Filename D:\Media\Music\EAC Rips\Charlie Parker - Swedish Schnapps\02 - Swedish Schnapps (Alt).wav

Pre-gap length 0:00:01.00

Peak level 92.6 %
Track quality 100.0 %
Test CRC A87F7F36
Copy CRC A87F7F36
Accurately ripped (confidence 4) [E8056250]
Copy OK

Track 3

Filename D:\Media\Music\EAC Rips\Charlie Parker - Swedish Schnapps\03 - Swedish Schnapps.wav

Pre-gap length 0:00:01.17

Peak level 100.0 %
Track quality 100.0 %
Test CRC BB29808D
Copy CRC BB29808D
Accurately ripped (confidence 4) [A9E484F5]
Copy OK

Track 4

Filename D:\Media\Music\EAC Rips\Charlie Parker - Swedish Schnapps\04 - Back Home Blues (Alt).wav

Pre-gap length 0:00:01.17

Peak level 93.8 %
Track quality 100.0 %
Test CRC 269C4619
Copy CRC 269C4619
Accurately ripped (confidence 4) [7EBA52DC]
Copy OK

Track 5

Filename D:\Media\Music\EAC Rips\Charlie Parker - Swedish Schnapps\05 - Back Home Blues.wav

Pre-gap length 0:00:01.49

Peak level 82.0 %
Track quality 99.9 %
Test CRC 63E3A965
Copy CRC 63E3A965
Accurately ripped (confidence 4) [007E0AEE]
Copy OK

Track 6

Filename D:\Media\Music\EAC Rips\Charlie Parker - Swedish Schnapps\06 - Lover Man.wav

Pre-gap length 0:00:01.00

Peak level 81.1 %
Track quality 100.0 %
Test CRC 06F4F848
Copy CRC 06F4F848
Accurately ripped (confidence 4) [10DFACF9]
Copy OK

Track 7

Filename D:\Media\Music\EAC Rips\Charlie Parker - Swedish Schnapps\07 - Blues For Alice.wav

Pre-gap length 0:00:01.33

Peak level 100.0 %
Track quality 99.9 %
Test CRC B2CD5820
Copy CRC B2CD5820
Accurately ripped (confidence 4) [B304CF86]
Copy OK

Track 8

Filename D:\Media\Music\EAC Rips\Charlie Parker - Swedish Schnapps\08 - Au Privave (Alt).wav

Pre-gap length 0:00:03.00

Peak level 78.2 %
Track quality 100.0 %
Test CRC A1D1FFCE
Copy CRC A1D1FFCE
Accurately ripped (confidence 4) [72BDAD93]
Copy OK

Track 9

Filename D:\Media\Music\EAC Rips\Charlie Parker - Swedish Schnapps\09 - Au Privave.wav

Pre-gap length 0:00:01.49

Peak level 98.3 %
Track quality 100.0 %
Test CRC B1929037
Copy CRC B1929037
Accurately ripped (confidence 4) [4727B7D8]
Copy OK

Track 10

Filename D:\Media\Music\EAC Rips\Charlie Parker - Swedish Schnapps\10 - She Rote (Alt).wav

Pre-gap length 0:00:01.49

Peak level 100.0 %
Track quality 100.0 %
Test CRC 216D40DF
Copy CRC 216D40DF
Accurately ripped (confidence 4) [E61122DD]
Copy OK

Track 11

Filename D:\Media\Music\EAC Rips\Charlie Parker - Swedish Schnapps\11 - She Rote.wav

Pre-gap length 0:00:01.50

Peak level 85.3 %
Track quality 100.0 %
Test CRC ACA899A4
Copy CRC ACA899A4
Accurately ripped (confidence 4) [BC50F852]
Copy OK

Track 12

Filename D:\Media\Music\EAC Rips\Charlie Parker - Swedish Schnapps\12 - K.C. Blues.wav

Pre-gap length 0:00:02.33

Peak level 100.0 %
Track quality 100.0 %
Test CRC C2FE7414
Copy CRC C2FE7414
Accurately ripped (confidence 4) [709F540F]
Copy OK

Track 13

Filename D:\Media\Music\EAC Rips\Charlie Parker - Swedish Schnapps\13 - Star Eyes.wav

Pre-gap length 0:00:01.50

Peak level 100.0 %
Track quality 100.0 %
Test CRC 203D9B89
Copy CRC 203D9B89
Accurately ripped (confidence 4) [E54240D4]
Copy OK

Track 14

Filename D:\Media\Music\EAC Rips\Charlie Parker - Swedish Schnapps\14 - Segment - Tune X.wav

Pre-gap length 0:00:02.84

Peak level 100.0 %
Track quality 100.0 %
Test CRC A7E1FA96
Copy CRC A7E1FA96
Accurately ripped (confidence 4) [AC0F7417]
Copy OK

Track 15

Filename D:\Media\Music\EAC Rips\Charlie Parker - Swedish Schnapps\15 - Diverse - Tune X (Alt).wav

Pre-gap length 0:00:02.17

Peak level 96.3 %
Track quality 100.0 %
Test CRC F6DC67EE
Copy CRC F6DC67EE
Accurately ripped (confidence 4) [9C910AA5]
Copy OK

Track 16

Filename D:\Media\Music\EAC Rips\Charlie Parker - Swedish Schnapps\16 - Passport - Tune Y (Rare).wav

Pre-gap length 0:00:01.17

Peak level 95.3 %
Track quality 99.9 %
Test CRC 2010786F
Copy CRC 2010786F
Accurately ripped (confidence 4) [EFB0F885]
Copy OK

Track 17

Filename D:\Media\Music\EAC Rips\Charlie Parker - Swedish Schnapps\17 - Passport - Tune Z (Common).wav

Pre-gap length 0:00:01.66

Peak level 100.0 %
Track quality 100.0 %
Test CRC B41D2ED3
Copy CRC B41D2ED3
Accurately ripped (confidence 4) [67BBDAB5]
Copy OK


All tracks accurately ripped

No errors occurred

End of status report

[CUETools log; Date: 12.01.2021 18:20:47; Version: 2.1.4]
Pregap length 00:00:33.
[CTDB TOCID: grsrWA1Pjl0RTyYqu0oNHMRrjYk-] found.
Track | CTDB Status
1 | (14/14) Accurately ripped
2 | (14/14) Accurately ripped
3 | (14/14) Accurately ripped
4 | (14/14) Accurately ripped
5 | (14/14) Accurately ripped
6 | (14/14) Accurately ripped
7 | (14/14) Accurately ripped
8 | (14/14) Accurately ripped
9 | (14/14) Accurately ripped
10 | (14/14) Accurately ripped
11 | (14/14) Accurately ripped
12 | (14/14) Accurately ripped
13 | (14/14) Accurately ripped
14 | (14/14) Accurately ripped
15 | (14/14) Accurately ripped
16 | (14/14) Accurately ripped
17 | (14/14) Accurately ripped
[AccurateRip ID: 001fab18-01936a31-f20c4011] found.
Track [ CRC | V2 ] Status
01 [0a4f3a07|c719b94c] (05+10/15) Accurately ripped
02 [e8056250|9f4cccc5] (05+10/15) Accurately ripped
03 [a9e484f5|87e8bc54] (05+10/15) Accurately ripped
04 [7eba52dc|7c103ec5] (05+10/15) Accurately ripped
05 [007e0aee|4a824462] (05+10/15) Accurately ripped
06 [10dfacf9|2ee4e755] (05+10/15) Accurately ripped
07 [b304cf86|4d54efb5] (05+10/15) Accurately ripped
08 [72bdad93|a3ce4e3e] (05+10/15) Accurately ripped
09 [4727b7d8|68690370] (05+10/15) Accurately ripped
10 [e61122dd|5f84df74] (05+10/15) Accurately ripped
11 [bc50f852|bb7b59f3] (05+10/15) Accurately ripped
12 [709f540f|81ba4a18] (05+10/15) Accurately ripped
13 [e54240d4|af967f2d] (05+10/15) Accurately ripped
14 [ac0f7417|1b0ad239] (04+10/14) Accurately ripped
15 [9c910aa5|2ac38ad7] (04+10/14) Accurately ripped
16 [efb0f885|f7a9a4b5] (05+10/15) Accurately ripped
17 [67bbdab5|d5a25a9c] (04+10/14) Accurately ripped

Track Peak [ CRC32 ] [W/O NULL] [ LOG ]
– 100,0 [81C1C580] [91BFCFEA]
01 95,4 [BFB86407] [EC767665] CRC32
02 92,6 [A87F7F36] [338A1B74] CRC32
03 100,0 [BB29808D] [B4730E69] CRC32
04 93,8 [269C4619] [58DF9E87] CRC32
05 82,0 [63E3A965] [70B8D727] CRC32
06 81,1 [06F4F848] [99E07D61] CRC32
07 100,0 [B2CD5820] [49B7E453] CRC32
08 78,2 [A1D1FFCE] [4FE9F674] CRC32
09 98,3 [B1929037] [9C554A84] CRC32
10 100,0 [216D40DF] [CD3272D1] CRC32
11 85,3 [ACA899A4] [2830ED45] CRC32
12 100,0 [C2FE7414] [2B05BD74] CRC32
13 100,0 [203D9B89] [935C9FFA] CRC32
14 100,0 [A7E1FA96] [F0E6B994] CRC32
15 96,3 [F6DC67EE] [60FBD79C] CRC32
16 95,3 [2010786F] [EE8E3962] CRC32
17 100,0 [B41D2ED3] [8D7DAA6A] CRC32

Thanks to the original releaser

See also: