Subcategories
Tags
Language
Tags

Chet Baker - The Legend Lives On (2017) [3CD Box Set]

Posted By: SERTiL
Chet Baker - The Legend Lives On (2017) [3CD Box Set]

Chet Baker - The Legend Lives On (2017) [3CD Box Set]
EAC Rip | FLAC (tracks)+cue, log, covers | 0.98 GB
Label: Factory of Sounds – FOS 2205052 | Tracks: 60 | Time: 216:21 min
Jazz, Cool Jazz, Vocal Jazz

Als musikalische Ikone der 50s und 60s haben Bakers Spiel, Gesang und Stil unzählige andere Musiker beeinflusst. Am 13. Mai 1988 wurde Baker tot auf der Straße vor seinem Hotelzimmer im Hotel Prins Hendrik in Amsterdam gefunden. Er hatte ernsthafte Verletzungen, die von einem plötzlichen Sturz aus dem Fenster des zweiten Stocks verursacht worden waren. Heroin und Kokain wurden in seinem Zimmer und auch in seinem Körper gefunden und der Tod als Unfall eingestuft. Eine Plakette außerhalb des Hotels erinnert an ihn und sein Zimmer und Raum Nummer 210, hat den Namen “The Chet Baker Room” erhalten.
Nichtsdestotrotz lebt die Legende weiter, wie auch auf dieser 3CD Kollektion mit vielen seiner besten und beliebtesten Aufnahmen.

Tracklist:

CD1
1. My funny Valentine
2. She didn't say yes, she didn't say no
3. Lullaby of the leaves
4. The lady is a tramp
5. Moonlight in Vermont
6. Makin' whoopee
7. My old flame
8. Love me or leave me
9. I may be wrong
10. I'm beginning to see the light
11. The nearness of you
12. Yesterdays
13. The thrill is gone
14. You don't know what love is
15. I'm thru with love
16. Love walked in
17. You better go now
18. I married an angel
19. Why shouldn't I?
20. Trickleydidlie

CD2
1. A little duet for Zoot and Chet
2. The wind
3. Love
4. I love you
5. What a difference a day made
6. Gone with the wind
7. Look for the silver lining
8. But not for me
9. Time after time
10. My funny Valentine
11. I get along without you very well
12. There will never be another you
13. I fall in love too easily
14. Line for lyons
15. Stella by starlight
16. Deep purple
17. Lullaby of the leaves
18. Dot's groovy
19. Little man, you've had a busy day
20. This is always

CD3
1. Someone to watch over me
2. I wish I knew
3. Grey december
4. Daybreak
5. Just friends
6. I remember you
7. Let's get lost
8. Long ago and far away
9. You don't know what love is
10. Sad walk
11. Just dou
12. The girl from Greenland
13. Down
14. I can't get started
15. That old feeling
16. It's always you
17. Like someone in love
18. My ideal
19. I've never been in love before
20. My buddy

Exact Audio Copy V1.3 from 2. September 2016

EAC extraction logfile from 11. December 2017, 16:43

Chet Baker / My Funny Valentine: The Essential Collection

Used drive : HL-DT-STDVDRAM GH24NSC0 Adapter: 1 ID: 0

Read mode : Secure
Utilize accurate stream : Yes
Defeat audio cache : Yes
Make use of C2 pointers : No

Read offset correction : 6
Overread into Lead-In and Lead-Out : No
Fill up missing offset samples with silence : Yes
Delete leading and trailing silent blocks : No
Null samples used in CRC calculations : Yes
Used interface : Native Win32 interface for Win NT & 2000
Gap handling : Not detected, thus appended to previous track

Used output format : Internal WAV Routines
Sample format : 44.100 Hz; 16 Bit; Stereo


TOC of the extracted CD

Track | Start | Length | Start sector | End sector
––––––––––––––––––––––––––––-
1 | 0:00.00 | 2:59.24 | 0 | 13448
2 | 2:59.24 | 2:36.18 | 13449 | 25166
3 | 5:35.42 | 3:16.57 | 25167 | 39923
4 | 8:52.24 | 3:15.20 | 39924 | 54568
5 | 12:07.44 | 4:09.31 | 54569 | 73274
6 | 16:17.00 | 3:30.34 | 73275 | 89058
7 | 19:47.34 | 3:14.66 | 89059 | 103674
8 | 23:02.25 | 2:45.55 | 103675 | 116104
9 | 25:48.05 | 2:53.21 | 116105 | 129100
10 | 28:41.26 | 3:38.08 | 129101 | 145458
11 | 32:19.34 | 2:54.36 | 145459 | 158544
12 | 35:13.70 | 4:26.41 | 158545 | 178535
13 | 39:40.36 | 2:48.08 | 178536 | 191143
14 | 42:28.44 | 3:31.57 | 191144 | 207025
15 | 46:00.26 | 2:40.58 | 207026 | 219083
16 | 48:41.09 | 3:00.25 | 219084 | 232608
17 | 51:41.34 | 3:08.05 | 232609 | 246713
18 | 54:49.39 | 3:39.28 | 246714 | 263166
19 | 58:28.67 | 3:37.64 | 263167 | 279505
20 | 62:06.56 | 2:40.60 | 279506 | 291565


Track 1

Filename H:\NOG TE BACKUPEN 7191-\7828 CHET BAKER The Legend Lives On\cd 1\01. Chet Baker - My Funny Valentine.wav

Peak level 96.6 %
Extraction speed 4.4 X
Track quality 100.0 %
Copy CRC 7BAB092A
Track not present in AccurateRip database
Copy OK

Track 2

Filename H:\NOG TE BACKUPEN 7191-\7828 CHET BAKER The Legend Lives On\cd 1\02. Chet Baker - She Didn't Say Yes, She Didn't Say No.wav

Peak level 96.6 %
Extraction speed 4.7 X
Track quality 100.0 %
Copy CRC E3FEC03B
Track not present in AccurateRip database
Copy OK

Track 3

Filename H:\NOG TE BACKUPEN 7191-\7828 CHET BAKER The Legend Lives On\cd 1\03. Chet Baker - Lullaby of the Leaves.wav

Peak level 96.6 %
Extraction speed 5.2 X
Track quality 100.0 %
Copy CRC D8114CBF
Track not present in AccurateRip database
Copy OK

Track 4

Filename H:\NOG TE BACKUPEN 7191-\7828 CHET BAKER The Legend Lives On\cd 1\04. Chet Baker - The Lady Is a Tramp.wav

Peak level 96.6 %
Extraction speed 5.4 X
Track quality 100.0 %
Copy CRC 23C4E1E1
Track not present in AccurateRip database
Copy OK

Track 5

Filename H:\NOG TE BACKUPEN 7191-\7828 CHET BAKER The Legend Lives On\cd 1\05. Chet Baker - Moonight in Vermont.wav

Peak level 96.6 %
Extraction speed 6.0 X
Track quality 100.0 %
Copy CRC E7E359CC
Track not present in AccurateRip database
Copy OK

Track 6

Filename H:\NOG TE BACKUPEN 7191-\7828 CHET BAKER The Legend Lives On\cd 1\06. Chet Baker - Makin' Whoopee.wav

Peak level 96.6 %
Extraction speed 5.0 X
Track quality 99.9 %
Copy CRC 84D76917
Track not present in AccurateRip database
Copy OK

Track 7

Filename H:\NOG TE BACKUPEN 7191-\7828 CHET BAKER The Legend Lives On\cd 1\07. Chet Baker - My Old Flame.wav

Peak level 96.6 %
Extraction speed 5.1 X
Track quality 99.9 %
Copy CRC E9A313E6
Track not present in AccurateRip database
Copy OK

Track 8

Filename H:\NOG TE BACKUPEN 7191-\7828 CHET BAKER The Legend Lives On\cd 1\08. Chet Baker - Love Me or Leave Me.wav

Peak level 96.6 %
Extraction speed 6.4 X
Track quality 100.0 %
Copy CRC 91C13612
Track not present in AccurateRip database
Copy OK

Track 9

Filename H:\NOG TE BACKUPEN 7191-\7828 CHET BAKER The Legend Lives On\cd 1\09. Chet Baker - I May Be Wrong.wav

Peak level 96.6 %
Extraction speed 5.2 X
Track quality 99.9 %
Copy CRC 81678562
Track not present in AccurateRip database
Copy OK

Track 10

Filename H:\NOG TE BACKUPEN 7191-\7828 CHET BAKER The Legend Lives On\cd 1\10. Chet Baker - I'm Beginning to See the Light.wav

Peak level 96.6 %
Extraction speed 5.8 X
Track quality 99.9 %
Copy CRC D3C94356
Track not present in AccurateRip database
Copy OK

Track 11

Filename H:\NOG TE BACKUPEN 7191-\7828 CHET BAKER The Legend Lives On\cd 1\11. Chet Baker - The Nearness of You.wav

Peak level 96.6 %
Extraction speed 7.0 X
Track quality 100.0 %
Copy CRC A485B647
Track not present in AccurateRip database
Copy OK

Track 12

Filename H:\NOG TE BACKUPEN 7191-\7828 CHET BAKER The Legend Lives On\cd 1\12. Chet Baker - Yesterdays.wav

Peak level 96.6 %
Extraction speed 6.5 X
Track quality 99.9 %
Copy CRC 264EF689
Track not present in AccurateRip database
Copy OK

Track 13

Filename H:\NOG TE BACKUPEN 7191-\7828 CHET BAKER The Legend Lives On\cd 1\13. Chet Baker - The Thrill Is Gone.wav

Peak level 96.6 %
Extraction speed 7.3 X
Track quality 100.0 %
Copy CRC 3D23DC24
Track not present in AccurateRip database
Copy OK

Track 14

Filename H:\NOG TE BACKUPEN 7191-\7828 CHET BAKER The Legend Lives On\cd 1\14. Chet Baker - You Don't Know What Love Is.wav

Peak level 96.6 %
Extraction speed 7.9 X
Track quality 100.0 %
Copy CRC ED03AF6A
Track not present in AccurateRip database
Copy OK

Track 15

Filename H:\NOG TE BACKUPEN 7191-\7828 CHET BAKER The Legend Lives On\cd 1\15. Chet Baker - I'm Thru with Love.wav

Peak level 93.7 %
Extraction speed 7.6 X
Track quality 100.0 %
Copy CRC 10BAC105
Track not present in AccurateRip database
Copy OK

Track 16

Filename H:\NOG TE BACKUPEN 7191-\7828 CHET BAKER The Legend Lives On\cd 1\16. Chet Baker - Love Walked In.wav

Peak level 96.6 %
Extraction speed 7.7 X
Track quality 100.0 %
Copy CRC EFC0701A
Track not present in AccurateRip database
Copy OK

Track 17

Filename H:\NOG TE BACKUPEN 7191-\7828 CHET BAKER The Legend Lives On\cd 1\17. Chet Baker - You Better Go Now.wav

Peak level 96.6 %
Extraction speed 8.1 X
Track quality 100.0 %
Copy CRC 33AD10B8
Track not present in AccurateRip database
Copy OK

Track 18

Filename H:\NOG TE BACKUPEN 7191-\7828 CHET BAKER The Legend Lives On\cd 1\18. Chet Baker - I Married an Angel.wav

Peak level 96.6 %
Extraction speed 8.6 X
Track quality 100.0 %
Copy CRC F81ACF12
Track not present in AccurateRip database
Copy OK

Track 19

Filename H:\NOG TE BACKUPEN 7191-\7828 CHET BAKER The Legend Lives On\cd 1\19. Chet Baker - Why Shouldn't I.wav

Peak level 96.6 %
Extraction speed 8.7 X
Track quality 100.0 %
Copy CRC B055071A
Track not present in AccurateRip database
Copy OK

Track 20

Filename H:\NOG TE BACKUPEN 7191-\7828 CHET BAKER The Legend Lives On\cd 1\20. Chet Baker - Trickleydidlier.wav

Peak level 96.6 %
Extraction speed 8.3 X
Track quality 100.0 %
Copy CRC 0D0C3492
Track not present in AccurateRip database
Copy OK


None of the tracks are present in the AccurateRip database

No errors occurred

End of status report

–– CUETools DB Plugin V2.1.6

[CTDB TOCID: 0HCJ6QidWPVwToV.wWYyDJmVPvs-] disk not present in database
Submit result: 0HCJ6QidWPVwToV.wWYyDJmVPvs- has been uploaded


==== Log checksum B76C32398F954865276F656A8E40200B02A77CB31279AB0B41D3AB25F63F3588 ====

Exact Audio Copy V1.3 from 2. September 2016

EAC extraction logfile from 11. December 2017, 18:33

Chet Baker / My Funny Valentine: The Essential Collection (Disc 2)

Used drive : HL-DT-STDVDRAM GH24NSC0 Adapter: 1 ID: 0

Read mode : Secure
Utilize accurate stream : Yes
Defeat audio cache : Yes
Make use of C2 pointers : No

Read offset correction : 6
Overread into Lead-In and Lead-Out : No
Fill up missing offset samples with silence : Yes
Delete leading and trailing silent blocks : No
Null samples used in CRC calculations : Yes
Used interface : Native Win32 interface for Win NT & 2000
Gap handling : Not detected, thus appended to previous track

Used output format : Internal WAV Routines
Sample format : 44.100 Hz; 16 Bit; Stereo


TOC of the extracted CD

Track | Start | Length | Start sector | End sector
––––––––––––––––––––––––––––-
1 | 0:00.00 | 2:37.54 | 0 | 11828
2 | 2:37.54 | 4:03.29 | 11829 | 30082
3 | 6:41.08 | 2:34.42 | 30083 | 41674
4 | 9:15.50 | 2:49.33 | 41675 | 54382
5 | 12:05.08 | 2:41.57 | 54383 | 66514
6 | 14:46.65 | 5:28.36 | 66515 | 91150
7 | 20:15.26 | 2:41.10 | 91151 | 103235
8 | 22:56.36 | 3:05.03 | 103236 | 117113
9 | 26:01.39 | 2:46.66 | 117114 | 129629
10 | 28:48.30 | 2:19.68 | 129630 | 140122
11 | 31:08.23 | 2:59.49 | 140123 | 153596
12 | 34:07.72 | 3:00.58 | 153597 | 167154
13 | 37:08.55 | 3:21.36 | 167155 | 182265
14 | 40:30.16 | 7:34.17 | 182266 | 216332
15 | 48:04.33 | 4:17.03 | 216333 | 235610
16 | 52:21.36 | 6:25.06 | 235611 | 264491
17 | 58:46.42 | 4:33.33 | 264492 | 284999
18 | 63:20.00 | 4:34.64 | 285000 | 305613
19 | 67:54.64 | 4:45.34 | 305614 | 327022
20 | 72:40.23 | 3:04.55 | 327023 | 340877


Track 1

Filename H:\NOG TE BACKUPEN 7191-\7828 CHET BAKER The Legend Lives On\Nieuwe map\01. Chet Baker - A Little Duet for Zoot and Chet.wav

Peak level 96.6 %
Extraction speed 2.8 X
Track quality 99.9 %
Copy CRC FD17A4A6
Track not present in AccurateRip database
Copy OK

Track 2

Filename H:\NOG TE BACKUPEN 7191-\7828 CHET BAKER The Legend Lives On\Nieuwe map\02. Chet Baker - The Wind.wav

Peak level 96.6 %
Extraction speed 1.2 X
Track quality 100.0 %
Copy CRC 4C5E776A
Track not present in AccurateRip database
Copy OK

Track 3

Filename H:\NOG TE BACKUPEN 7191-\7828 CHET BAKER The Legend Lives On\Nieuwe map\03. Chet Baker - Love.wav

Peak level 96.6 %
Extraction speed 1.2 X
Track quality 100.0 %
Copy CRC 3F45F9F5
Track not present in AccurateRip database
Copy OK

Track 4

Filename H:\NOG TE BACKUPEN 7191-\7828 CHET BAKER The Legend Lives On\Nieuwe map\04. Chet Baker - I Love You.wav

Peak level 96.6 %
Extraction speed 1.3 X
Track quality 100.0 %
Copy CRC A15A158B
Track not present in AccurateRip database
Copy OK

Track 5

Filename H:\NOG TE BACKUPEN 7191-\7828 CHET BAKER The Legend Lives On\Nieuwe map\05. Chet Baker - What a Difference a Day Made.wav

Peak level 96.6 %
Extraction speed 1.4 X
Track quality 100.0 %
Copy CRC 917A77DB
Track not present in AccurateRip database
Copy OK

Track 6

Filename H:\NOG TE BACKUPEN 7191-\7828 CHET BAKER The Legend Lives On\Nieuwe map\06. Chet Baker - Gone with the Wind.wav

Peak level 96.6 %
Extraction speed 1.6 X
Track quality 100.0 %
Copy CRC C0754B0A
Track not present in AccurateRip database
Copy OK

Track 7

Filename H:\NOG TE BACKUPEN 7191-\7828 CHET BAKER The Legend Lives On\Nieuwe map\07. Chet Baker - Look for the Silver Lining.wav

Peak level 96.6 %
Extraction speed 1.5 X
Track quality 100.0 %
Copy CRC F46ACDE3
Track not present in AccurateRip database
Copy OK

Track 8

Filename H:\NOG TE BACKUPEN 7191-\7828 CHET BAKER The Legend Lives On\Nieuwe map\08. Chet Baker - But Not for Me.wav

Peak level 96.6 %
Extraction speed 1.6 X
Track quality 100.0 %
Copy CRC 4966A761
Track not present in AccurateRip database
Copy OK

Track 9

Filename H:\NOG TE BACKUPEN 7191-\7828 CHET BAKER The Legend Lives On\Nieuwe map\09. Chet Baker - Time Aftertime.wav

Peak level 96.6 %
Extraction speed 1.6 X
Track quality 100.0 %
Copy CRC 260739DF
Track not present in AccurateRip database
Copy OK

Track 10

Filename H:\NOG TE BACKUPEN 7191-\7828 CHET BAKER The Legend Lives On\Nieuwe map\10. Chet Baker - My Funny Valentine.wav

Peak level 80.1 %
Extraction speed 1.6 X
Track quality 100.0 %
Copy CRC 8D1DAD39
Track not present in AccurateRip database
Copy OK

Track 11

Filename H:\NOG TE BACKUPEN 7191-\7828 CHET BAKER The Legend Lives On\Nieuwe map\11. Chet Baker - I Get Along Without You Very Well.wav

Peak level 84.8 %
Extraction speed 1.7 X
Track quality 100.0 %
Copy CRC 9F00FF14
Track not present in AccurateRip database
Copy OK

Track 12

Filename H:\NOG TE BACKUPEN 7191-\7828 CHET BAKER The Legend Lives On\Nieuwe map\12. Chet Baker - There Will Never Be Another You.wav

Peak level 96.6 %
Extraction speed 1.8 X
Track quality 100.0 %
Copy CRC 68C467ED
Track not present in AccurateRip database
Copy OK

Track 13

Filename H:\NOG TE BACKUPEN 7191-\7828 CHET BAKER The Legend Lives On\Nieuwe map\13. Chet Baker - I Fall in Love Too Easily.wav

Peak level 96.6 %
Extraction speed 1.6 X
Track quality 99.9 %
Copy CRC 3EE36F50
Track not present in AccurateRip database
Copy OK

Track 14

Filename H:\NOG TE BACKUPEN 7191-\7828 CHET BAKER The Legend Lives On\Nieuwe map\14. Chet Baker - Line for Lyons.wav

Peak level 96.6 %
Extraction speed 2.2 X
Track quality 100.0 %
Copy CRC 0AF0DA75
Track not present in AccurateRip database
Copy OK

Track 15

Filename H:\NOG TE BACKUPEN 7191-\7828 CHET BAKER The Legend Lives On\Nieuwe map\15. Chet Baker - Stella by Starlight.wav

Peak level 96.6 %
Extraction speed 2.1 X
Track quality 100.0 %
Copy CRC 1F03AC83
Track not present in AccurateRip database
Copy OK

Track 16

Filename H:\NOG TE BACKUPEN 7191-\7828 CHET BAKER The Legend Lives On\Nieuwe map\16. Chet Baker - Deep Purple.wav

Peak level 96.6 %
Extraction speed 2.3 X
Track quality 100.0 %
Copy CRC FD8F44BF
Track not present in AccurateRip database
Copy OK

Track 17

Filename H:\NOG TE BACKUPEN 7191-\7828 CHET BAKER The Legend Lives On\Nieuwe map\17. Chet Baker - Lullaby of the Leaves.wav

Peak level 96.6 %
Extraction speed 2.3 X
Track quality 100.0 %
Copy CRC 103B3735
Track not present in AccurateRip database
Copy OK

Track 18

Filename H:\NOG TE BACKUPEN 7191-\7828 CHET BAKER The Legend Lives On\Nieuwe map\18. Chet Baker - Dot's Groovy.wav

Peak level 80.9 %
Extraction speed 2.1 X
Track quality 99.9 %
Copy CRC A45BB988
Track not present in AccurateRip database
Copy OK

Track 19

Filename H:\NOG TE BACKUPEN 7191-\7828 CHET BAKER The Legend Lives On\Nieuwe map\19. Chet Baker - Little Man, You've Had a Busy Day.wav

Peak level 92.0 %
Extraction speed 2.5 X
Track quality 100.0 %
Copy CRC 1EB370F5
Track not present in AccurateRip database
Copy OK

Track 20

Filename H:\NOG TE BACKUPEN 7191-\7828 CHET BAKER The Legend Lives On\Nieuwe map\20. Chet Baker - This Is Always.wav

Peak level 80.6 %
Extraction speed 2.3 X
Track quality 100.0 %
Copy CRC 68B5AF24
Track not present in AccurateRip database
Copy OK


None of the tracks are present in the AccurateRip database

No errors occurred

End of status report

–– CUETools DB Plugin V2.1.6

[CTDB TOCID: EvEcAXnGulfKgzU2Vq_JF.JWzFg-] disk not present in database
Submit result: EvEcAXnGulfKgzU2Vq_JF.JWzFg- has been uploaded


==== Log checksum 3BC013AEB7EE1E240A0C5E67B1BB63FC3DF9F4088E11F7164961650416A27392 ====

Exact Audio Copy V1.3 from 2. September 2016

EAC extraction logfile from 11. December 2017, 19:47

Chet Baker / My Funny Valentine: The Essential Collection (Disc 3)

Used drive : HL-DT-STDVDRAM GH24NSC0 Adapter: 1 ID: 0

Read mode : Secure
Utilize accurate stream : Yes
Defeat audio cache : Yes
Make use of C2 pointers : No

Read offset correction : 6
Overread into Lead-In and Lead-Out : No
Fill up missing offset samples with silence : Yes
Delete leading and trailing silent blocks : No
Null samples used in CRC calculations : Yes
Used interface : Native Win32 interface for Win NT & 2000
Gap handling : Not detected, thus appended to previous track

Used output format : Internal WAV Routines
Sample format : 44.100 Hz; 16 Bit; Stereo


TOC of the extracted CD

Track | Start | Length | Start sector | End sector
––––––––––––––––––––––––––––-
1 | 0:00.00 | 3:02.13 | 0 | 13662
2 | 3:02.13 | 3:59.26 | 13663 | 31613
3 | 7:01.39 | 3:40.64 | 31614 | 48177
4 | 10:42.28 | 2:41.32 | 48178 | 60284
5 | 13:23.60 | 2:42.49 | 60285 | 72483
6 | 16:06.34 | 3:14.41 | 72484 | 87074
7 | 19:21.00 | 3:43.17 | 87075 | 103816
8 | 23:04.17 | 3:57.42 | 103817 | 121633
9 | 27:01.59 | 4:50.31 | 121634 | 143414
10 | 31:52.15 | 4:15.63 | 143415 | 162602
11 | 36:08.03 | 4:12.47 | 162603 | 181549
12 | 40:20.50 | 5:15.62 | 181550 | 205236
13 | 45:36.37 | 6:14.45 | 205237 | 233331
14 | 51:51.07 | 3:09.42 | 233332 | 247548
15 | 55:00.49 | 3:04.65 | 247549 | 261413
16 | 58:05.39 | 3:35.50 | 261414 | 277588
17 | 61:41.14 | 2:26.28 | 277589 | 288566
18 | 64:07.42 | 4:23.23 | 288567 | 308314
19 | 68:30.65 | 4:28.48 | 308315 | 328462
20 | 72:59.38 | 3:19.27 | 328463 | 343414


Track 1

Filename H:\NOG TE BACKUPEN 7191-\7828 CHET BAKER The Legend Lives On\cd 3\01. Chet Baker - Someone to Watch Over Me.wav

Peak level 96.6 %
Extraction speed 1.7 X
Track quality 100.0 %
Copy CRC D195EC2E
Track not present in AccurateRip database
Copy OK

Track 2

Filename H:\NOG TE BACKUPEN 7191-\7828 CHET BAKER The Legend Lives On\cd 3\02. Chet Baker - I Wish I Knew.wav

Peak level 96.6 %
Extraction speed 1.1 X
Track quality 99.9 %
Copy CRC 02751DCD
Track not present in AccurateRip database
Copy OK

Track 3

Filename H:\NOG TE BACKUPEN 7191-\7828 CHET BAKER The Legend Lives On\cd 3\03. Chet Baker - Grey December.wav

Peak level 96.6 %
Extraction speed 1.3 X
Track quality 100.0 %
Copy CRC B714ADFF
Track not present in AccurateRip database
Copy OK

Track 4

Filename H:\NOG TE BACKUPEN 7191-\7828 CHET BAKER The Legend Lives On\cd 3\04. Chet Baker - Daybreak.wav

Peak level 96.6 %
Extraction speed 1.3 X
Track quality 100.0 %
Copy CRC 4705D797
Track not present in AccurateRip database
Copy OK

Track 5

Filename H:\NOG TE BACKUPEN 7191-\7828 CHET BAKER The Legend Lives On\cd 3\05. Chet Baker - Just Friends.wav

Peak level 96.6 %
Extraction speed 1.2 X
Track quality 99.9 %
Copy CRC 446CF4AD
Track not present in AccurateRip database
Copy OK

Track 6

Filename H:\NOG TE BACKUPEN 7191-\7828 CHET BAKER The Legend Lives On\cd 3\06. Chet Baker - I Remember You.wav

Peak level 96.6 %
Extraction speed 1.3 X
Track quality 99.9 %
Copy CRC BFF9D197
Track not present in AccurateRip database
Copy OK

Track 7

Filename H:\NOG TE BACKUPEN 7191-\7828 CHET BAKER The Legend Lives On\cd 3\07. Chet Baker - Let's Get Lost.wav

Peak level 96.6 %
Extraction speed 1.6 X
Track quality 100.0 %
Copy CRC F7530944
Track not present in AccurateRip database
Copy OK

Track 8

Filename H:\NOG TE BACKUPEN 7191-\7828 CHET BAKER The Legend Lives On\cd 3\08. Chet Baker - Long Ago and Far Away.wav

Peak level 96.6 %
Extraction speed 1.7 X
Track quality 100.0 %
Copy CRC CBF5E831
Track not present in AccurateRip database
Copy OK

Track 9

Filename H:\NOG TE BACKUPEN 7191-\7828 CHET BAKER The Legend Lives On\cd 3\09. Chet Baker - You Don't Know What Love Is.wav

Peak level 96.6 %
Extraction speed 1.8 X
Track quality 100.0 %
Copy CRC 983F46F5
Track not present in AccurateRip database
Copy OK

Track 10

Filename H:\NOG TE BACKUPEN 7191-\7828 CHET BAKER The Legend Lives On\cd 3\10. Chet Baker - Sad Walk.wav

Peak level 96.6 %
Extraction speed 1.9 X
Track quality 100.0 %
Copy CRC 63548C22
Track not present in AccurateRip database
Copy OK

Track 11

Filename H:\NOG TE BACKUPEN 7191-\7828 CHET BAKER The Legend Lives On\cd 3\11. Chet Baker - Just Duo.wav

Peak level 96.6 %
Extraction speed 1.7 X
Track quality 99.9 %
Copy CRC FF8A7159
Track not present in AccurateRip database
Copy OK

Track 12

Filename H:\NOG TE BACKUPEN 7191-\7828 CHET BAKER The Legend Lives On\cd 3\12. Chet Baker - The Girl from Greenland.wav

Peak level 96.6 %
Extraction speed 2.1 X
Track quality 100.0 %
Copy CRC DCA55B57
Track not present in AccurateRip database
Copy OK

Track 13

Filename H:\NOG TE BACKUPEN 7191-\7828 CHET BAKER The Legend Lives On\cd 3\13. Chet Baker - Down.wav

Peak level 96.6 %
Extraction speed 2.2 X
Track quality 100.0 %
Copy CRC 57290A32
Track not present in AccurateRip database
Copy OK

Track 14

Filename H:\NOG TE BACKUPEN 7191-\7828 CHET BAKER The Legend Lives On\cd 3\14. Chet Baker - I Can't Get Started.wav

Peak level 96.6 %
Extraction speed 1.8 X
Track quality 99.9 %
Copy CRC 6B0F4F80
Track not present in AccurateRip database
Copy OK

Track 15

Filename H:\NOG TE BACKUPEN 7191-\7828 CHET BAKER The Legend Lives On\cd 3\15. Chet Baker - That Old Feeling.wav

Peak level 96.6 %
Extraction speed 2.1 X
Track quality 100.0 %
Copy CRC B90619BB
Track not present in AccurateRip database
Copy OK

Track 16

Filename H:\NOG TE BACKUPEN 7191-\7828 CHET BAKER The Legend Lives On\cd 3\16. Chet Baker - It's Always You.wav

Peak level 96.6 %
Extraction speed 2.2 X
Track quality 100.0 %
Copy CRC AB3FED39
Track not present in AccurateRip database
Copy OK

Track 17

Filename H:\NOG TE BACKUPEN 7191-\7828 CHET BAKER The Legend Lives On\cd 3\17. Chet Baker - Like Someone in Love.wav

Peak level 96.6 %
Extraction speed 2.1 X
Track quality 100.0 %
Copy CRC DBAB8216
Track not present in AccurateRip database
Copy OK

Track 18

Filename H:\NOG TE BACKUPEN 7191-\7828 CHET BAKER The Legend Lives On\cd 3\18. Chet Baker - My Ideal.wav

Peak level 96.6 %
Extraction speed 2.4 X
Track quality 100.0 %
Copy CRC DFB20E9B
Track not present in AccurateRip database
Copy OK

Track 19

Filename H:\NOG TE BACKUPEN 7191-\7828 CHET BAKER The Legend Lives On\cd 3\19. Chet Baker - I've Never Been in Love Before.wav

Peak level 96.6 %
Extraction speed 2.4 X
Track quality 100.0 %
Copy CRC A83A7CDB
Track not present in AccurateRip database
Copy OK

Track 20

Filename H:\NOG TE BACKUPEN 7191-\7828 CHET BAKER The Legend Lives On\cd 3\20. Chet Baker - My Buddy.wav

Peak level 96.6 %
Extraction speed 2.4 X
Track quality 100.0 %
Copy CRC 5DECF265
Track not present in AccurateRip database
Copy OK


None of the tracks are present in the AccurateRip database

No errors occurred

End of status report

–– CUETools DB Plugin V2.1.6

[CTDB TOCID: CPth_KhkphrCdyJQ_Z90iDXJ6tI-] disk not present in database
Submit result: CPth_KhkphrCdyJQ_Z90iDXJ6tI- has been uploaded


==== Log checksum A78E2F4A14529451EA85CFF8D8D802722AFD5AE30FA0D3DBEBF9091AF084B0E7 ====


Chet Baker - The Legend Lives On (2017) [3CD Box Set]


Thanks to the Original customer.