Subcategories
Tags
Language
Tags

Chet Baker Quartet - Burnin' At Backstreet [Recorded 1980] (1991) (Re-up)

Posted By: gribovar
Chet Baker Quartet - Burnin' At Backstreet [Recorded 1980] (1991) (Re-up)

Chet Baker Quartet - Burnin' At Backstreet [Recorded 1980] (1991)
EAC Rip | WavPack (image+.cue+log) - 364 MB | MP3 CBR 320 kbps (LAME 3.93) - 183 MB | Covers - 57 MB
Genre: Cool Jazz, Bop | RAR 3% Rec. | Label: Fresh Sound Records (FSR-CD 128)

Burnin' At Backstreet was recorded at the Backstreet Club in New haven Connecticut on February 19, 1980. Baker and Frank appear in a quartet format with bassist Michael Formanek and pianist Drew Salperto. The repertoire is wholly Baker. Baker loved the Miles Davis songbook and his performances of Davis originals were always more rounded and open than Davis.' "Tune Up," the modal "Milestones" and craggy "Four" share the stage with another Baker favorite, Dizzy Gillespie's "Blue 'n Boogie." Baker is in good solo form on these up tempo numbers. His tone is fat and confident, even when presented tartly, like the opening of "Milestones."
Baker's two ballad's, "Stella By Starlight" and "Just Friends" are thoughtful and swinging, presented in the fashion that made Baker famous. Frank is a more than capable drummer who obviously shared an empathic connection with Baker. Stand out here is pianist Salperto whose bop chops, even at the dawn of the '80s were spot on.
Tracklist:
01. Tune Up
02. Milestones
03. Blue 'N' Boogie
04. Stella By Starlight
05. Four
06. Just Friends

Total time: 01:17:50

Exact Audio Copy V1.0 beta 3 from 29. August 2011

EAC extraction logfile from 4. January 2013, 19:26

Chet Baker / Burnin' At Backstreet

Used drive : HL-DT-STBDDVDRW GBC-H20N Adapter: 1 ID: 0

Read mode : Secure
Utilize accurate stream : Yes
Defeat audio cache : Yes
Make use of C2 pointers : No

Read offset correction : 667
Overread into Lead-In and Lead-Out : No
Fill up missing offset samples with silence : Yes
Delete leading and trailing silent blocks : No
Null samples used in CRC calculations : Yes
Used interface : Native Win32 interface for Win NT & 2000

Used output format : User Defined Encoder
Selected bitrate : 1024 kBit/s
Quality : High
Add ID3 tag : No
Command line compressor : C:\Program Files\Exact Audio Copy\wavpack.exe
Additional command line options : -hm %source% %dest%


TOC of the extracted CD

Track | Start | Length | Start sector | End sector
––––––––––––––––––––––––––––-
1 | 0:00.33 | 15:24.22 | 33 | 69354
2 | 15:24.55 | 13:06.40 | 69355 | 128344
3 | 28:31.20 | 10:46.43 | 128345 | 176837
4 | 39:17.63 | 17:34.27 | 176838 | 255914
5 | 56:52.15 | 15:13.63 | 255915 | 324452
6 | 72:06.03 | 5:43.45 | 324453 | 350222


Range status and errors

Selected range

Filename C:\Users\ProgDog\Music\ZALIVKI\Chet Baker\Burnin' At Backstreet\Chet Baker - Burnin' At Backstreet.wav

Peak level 85.9 %
Extraction speed 6.5 X
Range quality 100.0 %
Test CRC 24D72AD8
Copy CRC 24D72AD8
Copy OK

No errors occurred


AccurateRip summary

Track 1 cannot be verified as accurate (confidence 1) [D733A4D7], AccurateRip returned [DDF66A82] (AR v2)
Track 2 cannot be verified as accurate (confidence 1) [27D5CB68], AccurateRip returned [4B346E71] (AR v2)
Track 3 cannot be verified as accurate (confidence 1) [4655BD08], AccurateRip returned [E4A4CAB8] (AR v2)
Track 4 cannot be verified as accurate (confidence 1) [A317EC9D], AccurateRip returned [0EDBF811] (AR v2)
Track 5 cannot be verified as accurate (confidence 1) [EE66EE6D], AccurateRip returned [0542EC6F] (AR v2)
Track 6 cannot be verified as accurate (confidence 1) [8461DEE9], AccurateRip returned [1EBA1354] (AR v2)

No tracks could be verified as accurate
You may have a different pressing from the one(s) in the database

End of status report

–– CUETools DB Plugin V2.1.3

[CTDB TOCID: 4rHfvM1V9tHEN5oT5S4azap4ibo-] disk not present in database, Submit result: discs with pregaps not supported in this protocol version


==== Log checksum 21D05E5F2ED589FB7C8247F2898ACD7DE397D47A95AC64058D8A7FF576489223 ====

[CUETools log; Date: 01.12.2020 18:03:21; Version: 2.1.4]
Pregap length 00:00:33.
[CTDB TOCID: 4rHfvM1V9tHEN5oT5S4azap4ibo-] found.
Track | CTDB Status
1 | ( 9/10) Accurately ripped
2 | ( 9/10) Accurately ripped
3 | (10/10) Accurately ripped
4 | (10/10) Accurately ripped
5 | (10/10) Accurately ripped
6 | (10/10) Accurately ripped
[AccurateRip ID: 0013ea4a-00696c38-4f123d06] found.
Track [ CRC | V2 ] Status
01 [9d91d91f|d733a4d7] (00+04/07) Accurately ripped
02 [ed3e0df5|27d5cb68] (00+04/07) Accurately ripped
03 [c6ad4911|4655bd08] (00+07/10) Accurately ripped
04 [cd4e531b|a317ec9d] (00+07/10) Accurately ripped
05 [e4985a07|ee66ee6d] (00+07/10) Accurately ripped
06 [fb08856d|8461dee9] (00+07/10) Accurately ripped
Offsetted by -664:
01 [1f9afcb2] (00/07) No match (V2 was not tested)
02 [2dbc122d] (00/07) No match (V2 was not tested)
03 [8fef06dc] (00/10) No match (V2 was not tested)
04 [9de7fe2f] (00/10) No match (V2 was not tested)
05 [084f5d08] (00/10) No match (V2 was not tested)
06 [8f1bfe29] (00/10) No match (V2 was not tested)

Track Peak [ CRC32 ] [W/O NULL] [ LOG ]
– 85,9 [24D72AD8] [CA321AA7] CRC32
01 65,6 [B4059990] [B6D2A640]
02 67,4 [628C1AE1] [93AD678B]
03 85,9 [F2285FD6] [C05EB96A]
04 76,6 [A55F6B11] [3A1BC3A5]
05 75,1 [5538F9A0] [EFB7370B]
06 64,4 [E69467CA] [9D70037D]

Thanks to arizonadream

See also:
Chet Baker - Chet Baker & Strings (1954) [Reissue 1998]
Chet Baker Quartet - Plays Standards (1956) [Reissue 2001]
Stan Getz & Chet Baker - Stan Meets Chet (1958) [Reissue 1996]
Chet Baker - Somewhere Over The Rainbow (1962) [Reissue 1992]
Chet Baker - Cool Burnin' with... Quintet (1967) [Reissue 1999]
Gerry Mulligan & Chet Bake... Mastersound, 24KT Gold, 1995]
Chet Baker - You Can't Go Home Again (1977) [Reissue 2000]
Chet Baker - Broken Wing (1978) [Reissue 2000]
Chet Baker - Two A Day (1979) [Reissue 1999]
Chet Baker & Enrico Pieran... Journey (1980) [Reissue 2007]
Chet Baker, Jim Hall, Hubert L... Trieste (1982) [Reissue 2007]
Chet Baker - Candy (1985) [Reissue 2004]
Chet Baker Trio - Chet's Choice (1985)
Chet Baker - Strollin' (1986) [Reissue 2008]
Chet Baker meets Space Jazz Trio - Little Girl Blue (1988)
Chet Baker - My Foolish Heart (1989)
Chet Baker - September Song (1990) [Reissue 2002]
Chet Baker - Grey December [Recorded 1953-1955] (1992)
Chet Baker - Young Chet [Recorded 1954-1956] (1995)
Chet Baker Quintet - At The Forum Theater [Recorded 1956] (1995)
Gerry Mulligan with Chet Baker...952-1957] [4CD Box Set] (1996)
Chet Baker - Chet Baker in Paris [Recorded 1980-1981] (1997)
Chet Baker - The Art Of The Ballad [Recorded 1958-1965] (1998)
The Stan Getz Quartet With Che...olume 2 [Recorded 1983] (2000)
Chet Baker - The Definitive Chet Baker [Recorded 1952-1983] (2002)
Chet Baker Quartet - Koln Concert [Recorded 1955] (2006)
Chet Baker - Tenderly [Recorded 1955-1956] (2008)
Chet Baker - One Night in Tokyo [Recorded 1987] (2008)