Subcategories
Tags
Language
Tags

Chick Corea - Verve Jazz Masters 3 [Recorded 1972-1978] (1993) (Re-up)

Posted By: gribovar
Chick Corea - Verve Jazz Masters 3 [Recorded 1972-1978] (1993) (Re-up)

Chick Corea - Verve Jazz Masters 3 [Recorded 1972-1978] (1993)
EAC Rip | FLAC (image+.cue+log) - 384 MB | MP3 CBR 320 kbps (LAME 3.93) - 164 MB | Covers (5 MB) included
Genre: Jazz, Fusion | RAR 3% Rec. | Label: Verve (519 820-2)

Not all of the installments in the Verve Jazz Masters series contain material originally issued on Verve. Verve Jazz Masters 3, for example, consists of 14 examples drawn from seven Chick Corea LPs released on the Polydor label during the years 1972-1978. Six of these come from Corea's Return to Forever period. The backbone of this collection (tracks one, seven, ten and fourteen) are selections from the highly acclaimed album Light as a Feather (1972) and there are excerpts from Hymn of the Seventh Galaxy (1973) and No Mystery (1975). The other eight titles are traceable to Corea's theatrically costumed and somewhat heavy-handed production albums The Leprechaun (1975), My Spanish Heart (1976), Friends (1978) and The Mad Hatter (1978). This disc will be useful as a vintage jazz fusion sampler or more specifically as an overview of what Chick Corea was up to during the Nixon/Ford/Carter years.
Tracklist:
01. You're Everything
02. Lenore
03. Space Circus - Part One
04. Friends
05. Night Streets
06. Children's Song No.15
07. Spain
08. Interplay
09. Nite Sprite
10. Light as a Feather
11. Tweedle Dee
12. Wind Danse
13. My Spanish Heart
14. Captain Marvel

Total time: 01:07:29

Exact Audio Copy V0.99 prebeta 5 from 4. May 2009

EAC extraction logfile from 10. June 2010, 15:28

Chick Corea / Jazz Masters 3

Used drive : ATAPI DVD D DH16D2P Adapter: 1 ID: 1

Read mode : Secure
Utilize accurate stream : Yes
Defeat audio cache : Yes
Make use of C2 pointers : No

Read offset correction : 6
Overread into Lead-In and Lead-Out : No
Fill up missing offset samples with silence : Yes
Delete leading and trailing silent blocks : No
Null samples used in CRC calculations : Yes
Used interface : Installed external ASPI interface

Used output format : Internal WAV Routines
Sample format : 44.100 Hz; 16 Bit; Stereo


TOC of the extracted CD

Track | Start | Length | Start sector | End sector
––––––––––––––––––––––––––––-
1 | 0:00.33 | 5:13.32 | 33 | 23539
2 | 5:13.65 | 3:28.03 | 23540 | 39142
3 | 8:41.68 | 1:33.00 | 39143 | 46117
4 | 10:14.68 | 9:28.07 | 46118 | 88724
5 | 19:43.00 | 6:03.25 | 88725 | 115974
6 | 25:46.25 | 1:13.15 | 115975 | 121464
7 | 26:59.40 | 9:52.50 | 121465 | 165914
8 | 36:52.15 | 2:18.18 | 165915 | 176282
9 | 39:10.33 | 4:35.02 | 176283 | 196909
10 | 43:45.35 | 10:59.65 | 196910 | 246399
11 | 54:45.25 | 1:10.53 | 246400 | 251702
12 | 55:56.03 | 4:59.05 | 251703 | 274132
13 | 60:55.08 | 1:40.62 | 274133 | 281694
14 | 62:35.70 | 4:52.48 | 281695 | 303642


Range status and errors

Selected range

Filename C:\Documents and Settings\marнa\Escritorio\IMБGENES\Chick Corea - Jazz Masters 3\Chick Corea - Jazz Masters 3.wav

Peak level 100.0 %
Range quality 100.0 %
Test CRC FA73F8B8
Copy CRC FA73F8B8
Copy OK

No errors occurred

End of status report

[CUETools log; Date: 30.11.2020 14:48:40; Version: 2.1.4]
Pregap length 00:00:33.
[CTDB TOCID: rGttoEJle8QY2cEiV80qUGxzceM-] found.
Track | CTDB Status
1 | (50/51) Accurately ripped
2 | (50/51) Accurately ripped
3 | (50/51) Accurately ripped
4 | (50/51) Accurately ripped
5 | (49/51) Accurately ripped
6 | (50/51) Accurately ripped
7 | (50/51) Accurately ripped
8 | (50/51) Accurately ripped
9 | (50/51) Accurately ripped
10 | (49/51) Accurately ripped
11 | (50/51) Accurately ripped
12 | (50/51) Accurately ripped
13 | (50/51) Accurately ripped
14 | (51/51) Accurately ripped
[AccurateRip ID: 00239421-017db17b-c50fd00e] found.
Track [ CRC | V2 ] Status
01 [5d3247fc|1e4947d9] (02+06/27) Accurately ripped
02 [6fda4970|11e13556] (03+06/27) Accurately ripped
03 [17e35850|bda4ba7a] (03+06/27) Accurately ripped
04 [43a9b61c|729da7ec] (03+06/27) Accurately ripped
05 [891d180f|9fdc8db1] (02+06/26) Accurately ripped
06 [d87ab4b5|37623ae7] (02+06/27) Accurately ripped
07 [15225ddd|a0c040c5] (02+06/27) Accurately ripped
08 [fc31b6bf|73cbb0b1] (02+06/26) Accurately ripped
09 [27a7b6be|1d0d7cc9] (02+06/26) Accurately ripped
10 [f33dc0d0|57951c2e] (02+05/27) Accurately ripped
11 [31170705|fdad39de] (02+06/26) Accurately ripped
12 [79a19cb2|7c4be3ce] (02+06/27) Accurately ripped
13 [538ecdad|f0dcaa07] (02+06/27) Accurately ripped
14 [07af6ee3|7bb7f917] (02+06/26) Accurately ripped
Offsetted by 681:
01 [e234bf37] (07/27) Accurately ripped
02 [6a7df3dd] (05/27) Accurately ripped
03 [8b038f35] (05/27) Accurately ripped
04 [d1bafeb7] (05/27) Accurately ripped
05 [8f6ccce7] (05/26) Accurately ripped
06 [0787aa35] (06/27) Accurately ripped
07 [95779657] (06/27) Accurately ripped
08 [7bf2a3af] (05/26) Accurately ripped
09 [6cdefb75] (05/26) Accurately ripped
10 [8bde5934] (07/27) Accurately ripped
11 [f888b2d8] (06/26) Accurately ripped
12 [b209d3f0] (06/27) Accurately ripped
13 [05c15fc7] (06/27) Accurately ripped
14 [2883cd62] (06/26) Accurately ripped
Offsetted by -220:
01 [ce3ba268] (00/27) No match (V2 was not tested)
02 [610b49a4] (00/27) No match (V2 was not tested)
03 [552fc664] (00/27) No match (V2 was not tested)
04 [2d130608] (00/27) No match (V2 was not tested)
05 [2435576f] (00/26) No match (V2 was not tested)
06 [4c194ab5] (00/27) No match (V2 was not tested)
07 [c011bcc5] (00/27) No match (V2 was not tested)
08 [dbf1e27f] (00/26) No match (V2 was not tested)
09 [6ca4851a] (00/26) No match (V2 was not tested)
10 [415ed460] (00/27) No match (V2 was not tested)
11 [fa0e7fd1] (00/26) No match (V2 was not tested)
12 [048ad8aa] (00/27) No match (V2 was not tested)
13 [f1c46315] (00/27) No match (V2 was not tested)
14 [4bad0360] (00/26) No match (V2 was not tested)
Offsetted by 709:
01 [025d728b] (00/27) No match (V2 was not tested)
02 [d2c6d7e9] (00/27) No match (V2 was not tested)
03 [c4603b61] (00/27) No match (V2 was not tested)
04 [8a21f48b] (00/27) No match (V2 was not tested)
05 [aee2bb87] (00/26) No match (V2 was not tested)
06 [14bdf435] (00/27) No match (V2 was not tested)
07 [96fc07ef] (00/27) No match (V2 was not tested)
08 [a549e3ef] (00/26) No match (V2 was not tested)
09 [dd1be5d9] (00/26) No match (V2 was not tested)
10 [8fe372a4] (00/27) No match (V2 was not tested)
11 [d0fe25cc] (00/26) No match (V2 was not tested)
12 [d38f0d78] (00/27) No match (V2 was not tested)
13 [16db22df] (00/27) No match (V2 was not tested)
14 [07e535d7] (00/26) No match (V2 was not tested)

Track Peak [ CRC32 ] [W/O NULL] [ LOG ]
– 100,0 [FA73F8B8] [2028D959] CRC32
01 81,7 [4AA82831] [C0212E75]
02 88,2 [CA724850] [2CE82A74]
03 74,1 [B6733211] [D26F26C7]
04 89,1 [AADAA32F] [9B0C1447]
05 87,9 [B5AE9C5B] [4ED2F127]
06 78,0 [4AD4BF8E] [52737CF7]
07 100,0 [A6715B4A] [4EF57E90]
08 59,5 [14E3D31D] [58D0A86E]
09 88,1 [3325E960] [2253D82C]
10 80,7 [F64A22AB] [24EE3A55]
11 91,6 [20B3EB6B] [A4191DF2]
12 87,2 [CDC10743] [64E5AE79]
13 71,6 [284BB225] [76103D15]
14 83,8 [FB86D109] [4C7B006C]

Thanks to TheWarrior

See also:
Chick Corea - Septet (1985)
Chick Corea - 3 Essential Albums (1986-1995) [3CD Box Set] (2016)
Chick Corea - The Ultimate Adventure (2006)
Chick Corea & John McLaughlin - Five Peace Band Live (2009)
Chick Corea, Christian McBride, Brian Blade - Trilogy 2 (2018)