Subcategories
Tags
Language
Tags

Chris Lightcap - SuperBigmouth (2019) {Pyroclastic Records}

Posted By: tiburon
Chris Lightcap - SuperBigmouth (2019) {Pyroclastic Records}

Chris Lightcap - SuperBigmouth (2019) {Pyroclastic Records}
EAC 1.3 | FLAC tracks level 8 | Cue+Log+M3U | Front+Back | 311MB + 5% Recovery
MP3 CBR 320 Kbps | 110MB + 5% Recovery
Genre: Jazz, Fusion

New York bassist Chris Lightcap’s all-electric 2018 Superette referenced surf, Ornette Coleman’s harmolodics, West African music and the international sounds of psychedlia. Such genre-bounding might sound heavy, but Lightcap’s music—this new LP included—is defined by lightness and grace. Growing up in a steel town near Pittsburgh, Lightcap’s musical curiosity was sated by his parents’ classical music collection and “tons and tons of rock ’n’ roll.” This heritage comes through on SuperBigmouth via distortion-edged guitar chords, while his love of West African music is heard in skittery drums and interlocking horns. SuperBigmouth unites Lightcap’s two bands: the two-guitar, drums (plus guests) Superette with Bigmouth, the group that released the much-hailed Epicenter back in 2015. And it works beautifully. With its almost 9-minute duration, “Zero Point Five” is thick with drowsy swagger. It starts in a classic rock formation, bass foregrounded against the patter of drums to meld in the other instruments. “Deep River,” meanwhile, begins with an atmospheric ’90s alt-rock vibe, the purity of the horns intersecting with the muted rhythm section, until Craig Taborn’s stylishly retro organ tips in. When asked why he formed the two-guitar band Superette, Lightcap said that he was intrigued by “the way the guitar overtones combine” to create a “spectral quality.” Something similar might be said about SuperBigmouth. Yet, despite the endless echoes of other genres and cultures, the music remains coherent and clear in its intent.
Track List
01. Through Birds, Through Fire (5:52)
02. Zero Point Five (8:53)
03. Queenside (5:17)
04. False Equivalency (4:07)
05. Deep River (8:38)
06. Nothing If Not (6:05)
07. Quinine (5:32)
08. Sanctuary City (3:48)

musicians
Chris Lightcap - bass
Craig Taborn - organ, piano, Wurlitzer
Tony Malaby - tenor saxophone
Chris Cheek - tenor saxophone
Jonathan Goldberger, Curtis Hasselbring - guitar
Gerald Cleaver - drums
Dan Rieser - drums

Produced by Chris Lightcap and David Breskin


Exact Audio Copy V1.3 from 2. September 2016

EAC extraction logfile from 22. November 2019, 23:00

Chris Lightcap / Superbigmouth

Used drive : HL-DT-STDVDRAM GUE1N Adapter: 1 ID: 0

Read mode : Secure
Utilize accurate stream : Yes
Defeat audio cache : Yes
Make use of C2 pointers : No

Read offset correction : 6
Overread into Lead-In and Lead-Out : No
Fill up missing offset samples with silence : Yes
Delete leading and trailing silent blocks : No
Null samples used in CRC calculations : Yes
Used interface : Native Win32 interface for Win NT & 2000
Gap handling : Appended to previous track

Used output format : User Defined Encoder
Selected bitrate : 1024 kBit/s
Quality : High
Add ID3 tag : No
Command line compressor : C:\Program Files (x86)\Exact Audio Copy\Flac\flac.exe
Additional command line options : -8 -V -T "ARTIST=%artist%" -T "TITLE=%title%" -T "ALBUM=%albumtitle%" -T "DATE=%year%" -T "TRACKNUMBER=%tracknr%" -T "GENRE=%genre%" -T "PERFORMER=%albuminterpret%" -T "COMPOSER=%composer%" %haslyrics%–tag-from-file=LYRICS="%lyricsfile%"%haslyrics% -T "ALBUMARTIST=%albumartist%" -T "DISCNUMBER=%cdnumber%" -T "TOTALDISCS=%totalcds%" -T "TOTALTRACKS=%numtracks%" -T "COMMENT=%comment%" %source% -o %dest%


TOC of the extracted CD

Track | Start | Length | Start sector | End sector
––––––––––––––––––––––––––––-
1 | 0:00.00 | 5:51.50 | 0 | 26374
2 | 5:51.50 | 8:52.44 | 26375 | 66318
3 | 14:44.19 | 5:16.63 | 66319 | 90081
4 | 20:01.07 | 4:06.44 | 90082 | 108575
5 | 24:07.51 | 8:37.58 | 108576 | 147408
6 | 32:45.34 | 6:04.63 | 147409 | 174771
7 | 38:50.22 | 5:31.59 | 174772 | 199655
8 | 44:22.06 | 3:48.07 | 199656 | 216762


Track 1

Filename D:\EAC Rips\Chris Lightcap - Superbigmouth (2019) [CD FLAC] {PR 07}\01 - Through Birds, Through Fire.wav

Pre-gap length 0:00:02.00

Peak level 100.0 %
Extraction speed 3.0 X
Track quality 100.0 %
Test CRC 8BF9A02C
Copy CRC 8BF9A02C
Track not present in AccurateRip database
Copy OK

Track 2

Filename D:\EAC Rips\Chris Lightcap - Superbigmouth (2019) [CD FLAC] {PR 07}\02 - Zero Point Five.wav

Peak level 97.3 %
Extraction speed 3.6 X
Track quality 100.0 %
Test CRC D4BC08FB
Copy CRC D4BC08FB
Track not present in AccurateRip database
Copy OK

Track 3

Filename D:\EAC Rips\Chris Lightcap - Superbigmouth (2019) [CD FLAC] {PR 07}\03 - Queenside.wav

Peak level 100.0 %
Extraction speed 4.0 X
Track quality 100.0 %
Test CRC E10B74F8
Copy CRC E10B74F8
Track not present in AccurateRip database
Copy OK

Track 4

Filename D:\EAC Rips\Chris Lightcap - Superbigmouth (2019) [CD FLAC] {PR 07}\04 - False Equivalency.wav

Peak level 100.0 %
Extraction speed 4.1 X
Track quality 100.0 %
Test CRC C1124FE8
Copy CRC C1124FE8
Track not present in AccurateRip database
Copy OK

Track 5

Filename D:\EAC Rips\Chris Lightcap - Superbigmouth (2019) [CD FLAC] {PR 07}\05 - Deep River.wav

Peak level 100.0 %
Extraction speed 4.7 X
Track quality 100.0 %
Test CRC 8A96DA4C
Copy CRC 8A96DA4C
Track not present in AccurateRip database
Copy OK

Track 6

Filename D:\EAC Rips\Chris Lightcap - Superbigmouth (2019) [CD FLAC] {PR 07}\06 - Nothing If Not.wav

Peak level 99.9 %
Extraction speed 4.6 X
Track quality 99.9 %
Test CRC 6457058C
Copy CRC 6457058C
Track not present in AccurateRip database
Copy OK

Track 7

Filename D:\EAC Rips\Chris Lightcap - Superbigmouth (2019) [CD FLAC] {PR 07}\07 - Quinine.wav

Peak level 100.0 %
Extraction speed 5.3 X
Track quality 100.0 %
Test CRC 218DEAD7
Copy CRC 218DEAD7
Track not present in AccurateRip database
Copy OK

Track 8

Filename D:\EAC Rips\Chris Lightcap - Superbigmouth (2019) [CD FLAC] {PR 07}\08 - Sanctuary City.wav

Peak level 98.9 %
Extraction speed 4.6 X
Track quality 99.9 %
Test CRC C54809E1
Copy CRC C54809E1
Track not present in AccurateRip database
Copy OK


None of the tracks are present in the AccurateRip database

No errors occurred

End of status report

–– CUETools DB Plugin V2.1.6

[CTDB TOCID: tpoOa9L1nomnkohsj9mUBPHKWZI-] found
Submit result: tpoOa9L1nomnkohsj9mUBPHKWZI- has been confirmed
Track | CTDB Status
1 | (2/2) Accurately ripped
2 | (2/2) Accurately ripped
3 | (2/2) Accurately ripped
4 | (2/2) Accurately ripped
5 | (2/2) Accurately ripped
6 | (2/2) Accurately ripped
7 | (2/2) Accurately ripped
8 | (2/2) Accurately ripped


==== Log checksum 8F6CD3FE02C5865C069831EB36151B904036CD20FC35A7814505214C2B9F0845 ====

Chris Lightcap - SuperBigmouth (2019) {Pyroclastic Records}


Thanks to the original ripper