Subcategories
Tags
Language
Tags

Chris Potter - The Dreamer Is The Dream (2017) {ECM 2519}

Posted By: tiburon
Chris Potter - The Dreamer Is The Dream (2017) {ECM 2519}

Chris Potter - The Dreamer Is The Dream (2017) {ECM 2519}
EAC 1.0b3 | FLAC tracks level 8 | Cue+Log+M3u | Full Scans 600dpi | 342MB + 5% Recovery
MP3 CBR 320 Kbps | 114MB + 5% Recovery
Genre: Jazz

For his third ECM release as a leader, Chris Potter presents a new acoustic quartet that naturally blends melodic rhapsody with rhythmic muscle. The group includes superlative musicians well known to followers of ECM’s many recordings from New York over the past decade: keyboardist David Virelles, bassist Joe Martin and drummer Marcus Gilmore, who each shine in addition to the leader on multiple horns. The Dreamer Is the Dream features Potter on tenor saxophone the instrument that has made him one of the most admired players of his generation in the striking opener “Heart in Hand” and such album highlights as “Yasodhara,” as well as on soprano sax (“Memory and Desire”) and bass clarinet (the title track). Potter is an artist who “employs his considerable technique in service of music rather than spectacle,” says The New Yorker, and his composing develops in texture and atmosphere with every album.
Track List
1. Heart in Hand (08:19)
2. Ilimba (09:52)
3. The Dreamer Is the Dream (08:18)
4. Memory and Desire (07:53)
5. Yasodhara (10:07)
6. Sonic Anomaly (05:34)

musicians
Chris Potter: Tenor Saxophone, Soprano Saxophone, Clarinet, Bass Clarinet, Flute, Ilimba, Samples
David Virelles: Piano, Celeste
Joe Martin: Double Bass
Marcus Gilmore: Drums, Percussion

Produced by Manfred Eicher


Exact Audio Copy V1.0 beta 3 from 29. August 2011

EAC extraction logfile from 6. May 2017, 11:21

Chris Potter, David Virelles, Joe Martin, Marcus Gilmore / The Dreamer Is The Dream [ECM 2519]

Used drive : ASUS DRW-24F1ST a Adapter: 0 ID: 0

Read mode : Secure
Utilize accurate stream : Yes
Defeat audio cache : Yes
Make use of C2 pointers : No

Read offset correction : 6
Overread into Lead-In and Lead-Out : No
Fill up missing offset samples with silence : Yes
Delete leading and trailing silent blocks : No
Null samples used in CRC calculations : Yes
Used interface : Native Win32 interface for Win NT & 2000
Gap handling : Appended to previous track

Used output format : User Defined Encoder
Selected bitrate : 128 kBit/s
Quality : High
Add ID3 tag : No
Command line compressor : C:\Program Files (x86)\Exact Audio Copy\FLAC\FLAC.EXE
Additional command line options : -8 -V -T "ARTIST=%artist%" -T "TITLE=%title%" -T "ALBUM=%albumtitle%" -T "DATE=%year%" -T "TRACKNUMBER=%tracknr%" -T "TOTALTRACKS=%numtracks%" -T "GENRE=%genre%" -T "ALBUMARTIST=%albumartist%" -T "ALBUM ARTIST=%albumartist%" -T "COMMENT=EAC Secure Mode, Test & Copy, AccurateRip, FLAC -8" %source%


TOC of the extracted CD

Track | Start | Length | Start sector | End sector
––––––––––––––––––––––––––––-
1 | 0:00.00 | 8:19.41 | 0 | 37465
2 | 8:19.41 | 9:52.46 | 37466 | 81911
3 | 18:12.12 | 8:18.44 | 81912 | 119305
4 | 26:30.56 | 7:52.73 | 119306 | 154778
5 | 34:23.54 | 10:07.53 | 154779 | 200356
6 | 44:31.32 | 5:34.56 | 200357 | 225462


Track 1

Filename K:\EAC\01 - Heart in Hand.wav

Pre-gap length 0:00:02.00

Peak level 67.9 %
Extraction speed 4.9 X
Track quality 100.0 %
Test CRC B61ED498
Copy CRC B61ED498
Track not present in AccurateRip database
Copy OK

Track 2

Filename K:\EAC\02 - Ilimba.wav

Peak level 81.0 %
Extraction speed 5.7 X
Track quality 99.9 %
Test CRC CD06188E
Copy CRC CD06188E
Track not present in AccurateRip database
Copy OK

Track 3

Filename K:\EAC\03 - The Dreamer Is The Dream.wav

Peak level 68.6 %
Extraction speed 6.8 X
Track quality 100.0 %
Test CRC B2379C92
Copy CRC B2379C92
Track not present in AccurateRip database
Copy OK

Track 4

Filename K:\EAC\04 - Memory And Desire.wav

Peak level 80.3 %
Extraction speed 7.4 X
Track quality 100.0 %
Test CRC C19389F6
Copy CRC C19389F6
Track not present in AccurateRip database
Copy OK

Track 5

Filename K:\EAC\05 - Yasodhara.wav

Peak level 79.2 %
Extraction speed 8.1 X
Track quality 100.0 %
Test CRC 29855D31
Copy CRC 29855D31
Track not present in AccurateRip database
Copy OK

Track 6

Filename K:\EAC\06 - Sonic Anomaly.wav

Peak level 82.7 %
Extraction speed 8.2 X
Track quality 100.0 %
Test CRC EF569473
Copy CRC EF569473
Track not present in AccurateRip database
Copy OK


None of the tracks are present in the AccurateRip database

No errors occurred

End of status report

==== Log checksum 7DB89CD4C8EFEAC90A628F9583E7B81DB3A48817709363D65AEA053BD72F3761 ====


––––––––––––––––––––––––––––––––––––––––
Analyzed: Chris Potter, David Virelles, Joe Martin, Marcus Gilmore / The Dreamer Is The Dream [ECM 2519]
––––––––––––––––––––––––––––––––––––––––

DR Peak RMS Duration Track
––––––––––––––––––––––––––––––––––––––––
DR13 -3.35 dB -20.05 dB 8:20 01-Heart in Hand
DR14 -1.83 dB -20.70 dB 9:53 02-Ilimba
DR13 -3.27 dB -20.02 dB 8:19 03-The Dreamer Is The Dream
DR14 -1.90 dB -21.09 dB 7:53 04-Memory And Desire
DR13 -2.02 dB -19.04 dB 10:08 05-Yasodhara
DR14 -1.64 dB -18.25 dB 5:35 06-Sonic Anomaly
––––––––––––––––––––––––––––––––––––––––

Number of tracks: 6
Official DR value: DR13

Samplerate: 44100 Hz
Channels: 2
Bits per sample: 16
Bitrate: 781 kbps
Codec: FLAC
================================================================================

Chris Potter - The Dreamer Is The Dream (2017) {ECM 2519}
Chris Potter - The Dreamer Is The Dream (2017) {ECM 2519}
Chris Potter - The Dreamer Is The Dream (2017) {ECM 2519}


Thanks to the original ripper