Subcategories

Christian Curnyn, Early Opera Company - Handel: Il Trionfo del Tempo e del Disinganno, HWV 46a (2011)

Posted By: ArlegZ
Christian Curnyn, Early Opera Company - Handel: Il Trionfo del Tempo e del Disinganno, HWV 46a (2011)

Christian Curnyn, Early Opera Company - Handel: Il Trionfo del Tempo e del Disinganno, HWV 46a (2011)
EAC | FLAC | Image (Cue & Log) ~ 570 Mb | Total time: 137:27 | Scans included
Classical | Label: Wigmore Hall Live | # WHLive0042/2 | Recorded: 2010

Wigmore Hall Live kicks off New Year with an early music release. Handel s Il Trionfo del Tempo e del Disinganno was the composer s first opera to feature the celebrated aria Lascia la spina, cogli la rosa (Avoid the thorn, pluck the rose). Recorded for Wigmore Hall Live in January 2010 by the Early Opera Company, one of Britain s leading early music ensembles, the group features contralto Hilary Summers in the traditional countertenor role of enlightenment, her voice specifically chosen for its depth and fullness of tone. Director and harpsichordist, Christian Curnyn, was determined to recreate as faithful a sound as possible to what audiences at the time would have heard, not only instrumentally but notably in relation to tempi: Everything in Handel comes back to the heartbeat rate, fifty per minute. Recently people have tended to go either very fast or make things very dragged out, but in my view that spoils it. Baroque music is all based on dance, which means a natural rhythm. Of course you should push the boundaries, but it should feel as though you re pushing against a natural membrane. There s an inner pulse in Handel which you can t ignore.

Performer:
Belezza - Lucy Crowe
Piacere - Anna Stephany
Disinganno - Hilary Summers
Tempo - Andrew Staples
Early Opera Company
Conductor - Christian Curnyn

Track List:
CD1:
1. Sonata. Allegro - Adagio - Allegro
2. Part 1. Aria. Fido specchio
3. Part 1. Recitative. Io che sono il Piacere…
4. Part 1. Aria. Fosco genio
5. Part 1. Recitative. Ed io che'l Tempo sono…
6. Part 1. Aria. Se la bellezza
7. Part 1. Recitative. Dunque si predan l'armi
8. Part 1. Aria. Una schiera di piaceri
9. Part 1. Recitative. I colossi del Sole
10. Part 1. Aria. Urne voi
11. Part 1. Recitative. Sono troppo crudeli i tuoi consigli
12. Part 1. Duet. Il voler
13. Part 1. Recitative. Della vita mortale
14. Part 1. Aria. Un pensiero nemico di pace
15. Part 1. Recitative. Folle
16. Part 1. Aria. Nasce l'uomo
17. Part 1. Aria. L'uomo sempre se stesso distrugge
18. Part 1. Recitative. Questa è la reggia mia
19. Part 1. Organ Sonata (Allegro)
20. Part 1. Aria. Un leggiadro giovinetto
21. Part 1. Recitative. Ha della destra l'ali
22. Part 1. Aria. Venga il Tempo
23. Part 1. Aria. Crede l'uom
24. Part 1. Recitative. Tu credi che sia lungi
25. Part 1. Aria. Folle
26. Part 1. Recitative. La reggia del Piacer vedesti
27. Part 1. Quartet. Se non sei più ministro di pene
CD2:
1. Part 2. Recitative. Se del falso piacere
2. Part 2. Aria. Chiudi
3. Part 2. Recitative. In tre parti divise
4. Part 2. Aria. Io sperai
5. Part 2. Recitative. Tu vivi invan dolente
6. Part 2. Aria. Tu giurasti
7. Part 2. Recitative. Sguardo, che infermo ai rai del Sol si volge
8. Part 2. Aria. Io vorrei
9. Part 2. Recitative. Io giurrerei
10. Part 2. Aria. Più non cura
11. Part 2. Recitative. E un ostinato errore
12. Part 2. Aria. È ben folle quel nocchier
13. Part 2. Recitative. Dicesti il vero
14. Part 2. Quartet. Voglio Tempo
15. Part 2. Recitative. Presso la reggia
16. Part 2. Aria. Lascia la spina
17. Part 2. Recitative. Con troppo chiare note
18. Part 2. Aria. Voglio cangiar desio
19. Part 2. Recitative. Or che tiene
20. Part 2. Aria. Chi già fu
21. Part 2. Recitative. Ma che veggio
22. Part 2. Aria. Ricco pino
23. Part 2. Recitative. Si, bella Penitenza
24. Part 2. Duet. Il bel pianto
25. Part 2. Recitative. Piacer, che meco già vivesti
26. Part 2. Aria. Come nembo
27. Part 2. Recitative. Pure del Cielo intelligenze eterne
28. Part 2. Aria. Tu del Ciel ministro eletto


Exact Audio Copy V1.3 from 2. September 2016

EAC extraction logfile from 31. October 2018, 0:36

Lucy Crowe, Anna Stephany, Hilary Summers, Andrew Staples; Christian Curnyn / Handel - Il Trionfo del Tempo e del Disinganno (Disc 1)

Used drive : ATAPI iHAS124 F Adapter: 1 ID: 0

Read mode : Secure
Utilize accurate stream : Yes
Defeat audio cache : Yes
Make use of C2 pointers : No

Read offset correction : 6
Overread into Lead-In and Lead-Out : No
Fill up missing offset samples with silence : Yes
Delete leading and trailing silent blocks : No
Null samples used in CRC calculations : Yes
Used interface : Native Win32 interface for Win NT & 2000

Used output format : User Defined Encoder
Selected bitrate : 1024 kBit/s
Quality : High
Add ID3 tag : No
Command line compressor : C:\Program Files (x86)\Exact Audio Copy\FLAC\FLAC.EXE
Additional command line options : -8 -V -T "TITLE=%title%" -T "ARTIST=%artist%" -T "ALBUMARTIST=%albumartist%" -T "ALBUM=%albumtitle%" -T "DATE=%year%" -T "TRACKNUMBER=%tracknr%" -T "TRACKTOTAL=%numtracks%" -T "GENRE=%genre%" -T "COMMENT=%comment%" -T "PERFORMER=%albuminterpret%" -T "COMPOSER=%composer%" %source% -o %dest%


TOC of the extracted CD

Track | Start | Length | Start sector | End sector
––––––––––––––––––––––––––––-
1 | 0:00.00 | 5:00.38 | 0 | 22537
2 | 5:00.38 | 4:23.06 | 22538 | 42268
3 | 9:23.44 | 0:27.60 | 42269 | 44353
4 | 9:51.29 | 3:08.65 | 44354 | 58518
5 | 13:00.19 | 0:22.33 | 58519 | 60201
6 | 13:22.52 | 2:52.33 | 60202 | 73134
7 | 16:15.10 | 0:17.52 | 73135 | 74461
8 | 16:32.62 | 3:45.59 | 74462 | 91395
9 | 20:18.46 | 0:17.06 | 91396 | 92676
10 | 20:35.52 | 3:44.67 | 92677 | 109543
11 | 24:20.44 | 0:15.49 | 109544 | 110717
12 | 24:36.18 | 5:16.11 | 110718 | 134428
13 | 29:52.29 | 0:33.33 | 134429 | 136936
14 | 30:25.62 | 3:53.62 | 136937 | 154473
15 | 34:19.49 | 0:57.12 | 154474 | 158760
16 | 35:16.61 | 2:09.15 | 158761 | 168450
17 | 37:26.01 | 2:29.32 | 168451 | 179657
18 | 39:55.33 | 1:21.49 | 179658 | 185781
19 | 41:17.07 | 2:47.22 | 185782 | 198328
20 | 44:04.29 | 3:33.61 | 198329 | 214364
21 | 47:38.15 | 0:10.43 | 214365 | 215157
22 | 47:48.58 | 3:16.52 | 215158 | 229909
23 | 51:05.35 | 5:40.58 | 229910 | 255467
24 | 56:46.18 | 1:01.40 | 255468 | 260082
25 | 57:47.58 | 3:19.44 | 260083 | 275051
26 | 61:07.27 | 0:18.49 | 275052 | 276450
27 | 61:26.01 | 4:28.56 | 276451 | 296606


Range status and errors

Selected range

Filename C:\EACRip\HANDEL\Handel - Il Trionfo del Tempo e del Disinganno (Christian Curnyn) (2010)\CD1\Handel - Il Trionfo del Tempo e del Disinganno (Disc 1) - Christian Curnyn.wav

Peak level 79.2 %
Extraction speed 7.1 X
Range quality 99.9 %
Test CRC D618AD27
Copy CRC D618AD27
Copy OK

No errors occurred


AccurateRip summary

Track 1 accurately ripped (confidence 4) [8EF4AB7E] (AR v2)
Track 2 accurately ripped (confidence 4) [28D5ECF6] (AR v2)
Track 3 accurately ripped (confidence 4) [F72FCC1C] (AR v2)
Track 4 accurately ripped (confidence 4) [974CDCFD] (AR v2)
Track 5 accurately ripped (confidence 4) [A69760EF] (AR v2)
Track 6 accurately ripped (confidence 4) [B8618FB7] (AR v2)
Track 7 accurately ripped (confidence 4) [490850C7] (AR v2)
Track 8 accurately ripped (confidence 4) [5DBDD90E] (AR v2)
Track 9 accurately ripped (confidence 4) [F1FB71CE] (AR v2)
Track 10 accurately ripped (confidence 4) [3D8EEFF7] (AR v2)
Track 11 accurately ripped (confidence 4) [5C4B9A09] (AR v2)
Track 12 accurately ripped (confidence 4) [9E5842D4] (AR v2)
Track 13 accurately ripped (confidence 4) [3EE164E7] (AR v2)
Track 14 accurately ripped (confidence 4) [FBB8D343] (AR v2)
Track 15 accurately ripped (confidence 4) [0F2B3320] (AR v2)
Track 16 accurately ripped (confidence 4) [4EE7E96B] (AR v2)
Track 17 accurately ripped (confidence 4) [E81EDA1C] (AR v2)
Track 18 accurately ripped (confidence 4) [5E82B934] (AR v2)
Track 19 accurately ripped (confidence 4) [26241F45] (AR v2)
Track 20 accurately ripped (confidence 4) [68C33961] (AR v2)
Track 21 accurately ripped (confidence 4) [7AA35CA8] (AR v2)
Track 22 accurately ripped (confidence 4) [7DF8CFE7] (AR v2)
Track 23 accurately ripped (confidence 4) [F20A0C80] (AR v2)
Track 24 accurately ripped (confidence 4) [8051F5B6] (AR v2)
Track 25 accurately ripped (confidence 4) [8842693C] (AR v2)
Track 26 accurately ripped (confidence 4) [4E299BAC] (AR v2)
Track 27 accurately ripped (confidence 4) [090D9952] (AR v2)

All tracks accurately ripped

End of status report

–– CUETools DB Plugin V2.1.6

[CTDB TOCID: Jar4BneBtspsJqFUjWaXd0_RGbE-] found
Submit result: Jar4BneBtspsJqFUjWaXd0_RGbE- has been confirmed
Track | CTDB Status
1 | (1/1) Accurately ripped
2 | (1/1) Accurately ripped
3 | (1/1) Accurately ripped
4 | (1/1) Accurately ripped
5 | (1/1) Accurately ripped
6 | (1/1) Accurately ripped
7 | (1/1) Accurately ripped
8 | (1/1) Accurately ripped
9 | (1/1) Accurately ripped
10 | (1/1) Accurately ripped
11 | (1/1) Accurately ripped
12 | (1/1) Accurately ripped
13 | (1/1) Accurately ripped
14 | (1/1) Accurately ripped
15 | (1/1) Accurately ripped
16 | (1/1) Accurately ripped
17 | (1/1) Accurately ripped
18 | (1/1) Accurately ripped
19 | (1/1) Accurately ripped
20 | (1/1) Accurately ripped
21 | (1/1) Accurately ripped
22 | (1/1) Accurately ripped
23 | (1/1) Accurately ripped
24 | (1/1) Accurately ripped
25 | (1/1) Accurately ripped
26 | (1/1) Accurately ripped
27 | (1/1) Accurately ripped


==== Log checksum 23C78050744C907CE0968A498D57F31D1370F10D3869180D3723B87FE44A6A76 ====


Exact Audio Copy V1.3 from 2. September 2016

EAC extraction logfile from 31. October 2018, 1:17

Lucy Crowe, Anna Stephany, Hilary Summers, Andrew Staples; Christian Curnyn / Handel - Il Trionfo del Tempo e del Disinganno (Disc 2)

Used drive : ATAPI iHAS124 F Adapter: 1 ID: 0

Read mode : Secure
Utilize accurate stream : Yes
Defeat audio cache : Yes
Make use of C2 pointers : No

Read offset correction : 6
Overread into Lead-In and Lead-Out : No
Fill up missing offset samples with silence : Yes
Delete leading and trailing silent blocks : No
Null samples used in CRC calculations : Yes
Used interface : Native Win32 interface for Win NT & 2000

Used output format : User Defined Encoder
Selected bitrate : 1024 kBit/s
Quality : High
Add ID3 tag : No
Command line compressor : C:\Program Files (x86)\Exact Audio Copy\FLAC\FLAC.EXE
Additional command line options : -8 -V -T "TITLE=%title%" -T "ARTIST=%artist%" -T "ALBUMARTIST=%albumartist%" -T "ALBUM=%albumtitle%" -T "DATE=%year%" -T "TRACKNUMBER=%tracknr%" -T "TRACKTOTAL=%numtracks%" -T "GENRE=%genre%" -T "COMMENT=%comment%" -T "PERFORMER=%albuminterpret%" -T "COMPOSER=%composer%" %source% -o %dest%


TOC of the extracted CD

Track | Start | Length | Start sector | End sector
––––––––––––––––––––––––––––-
1 | 0:00.00 | 1:04.41 | 0 | 4840
2 | 1:04.41 | 3:35.29 | 4841 | 20994
3 | 4:39.70 | 0:48.61 | 20995 | 24655
4 | 5:28.56 | 6:33.67 | 24656 | 54197
5 | 12:02.48 | 0:13.02 | 54198 | 55174
6 | 12:15.50 | 3:59.03 | 55175 | 73102
7 | 16:14.53 | 0:26.11 | 73103 | 75063
8 | 16:40.64 | 3:34.72 | 75064 | 91185
9 | 20:15.61 | 0:40.35 | 91186 | 94220
10 | 20:56.21 | 3:54.27 | 94221 | 111797
11 | 24:50.48 | 0:19.64 | 111798 | 113286
12 | 25:10.37 | 2:29.33 | 113287 | 124494
13 | 27:39.70 | 0:18.41 | 124495 | 125885
14 | 27:58.36 | 4:29.13 | 125886 | 146073
15 | 32:27.49 | 1:13.46 | 146074 | 151594
16 | 33:41.20 | 4:40.60 | 151595 | 172654
17 | 38:22.05 | 0:26.41 | 172655 | 174645
18 | 38:48.46 | 5:03.44 | 174646 | 197414
19 | 43:52.15 | 0:18.36 | 197415 | 198800
20 | 44:10.51 | 2:26.38 | 198801 | 209788
21 | 46:37.14 | 0:42.09 | 209789 | 212947
22 | 47:19.23 | 4:09.55 | 212948 | 231677
23 | 51:29.03 | 0:47.21 | 231678 | 235223
24 | 52:16.24 | 6:02.68 | 235224 | 262441
25 | 58:19.17 | 0:30.30 | 262442 | 264721
26 | 58:49.47 | 5:33.70 | 264722 | 289766
27 | 64:23.42 | 0:52.29 | 289767 | 293695
28 | 65:15.71 | 6:17.03 | 293696 | 321973


Range status and errors

Selected range

Filename C:\EACRip\HANDEL\Handel - Il Trionfo del Tempo e del Disinganno (Christian Curnyn) (2010)\CD2\Handel - Il Trionfo del Tempo e del Disinganno (Disc 2) - Christian Curnyn.wav

Peak level 91.3 %
Extraction speed 7.5 X
Range quality 99.9 %
Test CRC 98325974
Copy CRC 98325974
Copy OK

No errors occurred


AccurateRip summary

Track 1 accurately ripped (confidence 4) [FEDAE772] (AR v2)
Track 2 accurately ripped (confidence 4) [4602DB1D] (AR v2)
Track 3 accurately ripped (confidence 4) [DEB1EF59] (AR v2)
Track 4 accurately ripped (confidence 4) [38C1DFF7] (AR v2)
Track 5 accurately ripped (confidence 4) [D01321C5] (AR v2)
Track 6 accurately ripped (confidence 4) [B1286E58] (AR v2)
Track 7 accurately ripped (confidence 4) [9D650FAF] (AR v2)
Track 8 accurately ripped (confidence 4) [580D74EA] (AR v2)
Track 9 accurately ripped (confidence 4) [01FED46E] (AR v2)
Track 10 accurately ripped (confidence 4) [AF04A029] (AR v2)
Track 11 accurately ripped (confidence 4) [76B77C64] (AR v2)
Track 12 accurately ripped (confidence 4) [4800655B] (AR v2)
Track 13 accurately ripped (confidence 4) [67670B35] (AR v2)
Track 14 accurately ripped (confidence 4) [3E2E8B1B] (AR v2)
Track 15 accurately ripped (confidence 4) [82063336] (AR v2)
Track 16 accurately ripped (confidence 4) [1B42C483] (AR v2)
Track 17 accurately ripped (confidence 4) [7BD0CDD6] (AR v2)
Track 18 accurately ripped (confidence 4) [BEE4F5F9] (AR v2)
Track 19 accurately ripped (confidence 4) [85392C8B] (AR v2)
Track 20 accurately ripped (confidence 4) [3D69CEF2] (AR v2)
Track 21 accurately ripped (confidence 4) [CD021C87] (AR v2)
Track 22 accurately ripped (confidence 4) [7564BE00] (AR v2)
Track 23 accurately ripped (confidence 4) [BEBD699B] (AR v2)
Track 24 accurately ripped (confidence 4) [DE507407] (AR v2)
Track 25 accurately ripped (confidence 4) [D44179B1] (AR v2)
Track 26 accurately ripped (confidence 4) [DFBB5B54] (AR v2)
Track 27 accurately ripped (confidence 4) [B3E6BEA3] (AR v2)
Track 28 accurately ripped (confidence 4) [58823FA7] (AR v2)

All tracks accurately ripped

End of status report

–– CUETools DB Plugin V2.1.6

[CTDB TOCID: _az.0aMM2Jj2zTyWU4BLgC_BqLs-] found
Submit result: _az.0aMM2Jj2zTyWU4BLgC_BqLs- has been confirmed
Track | CTDB Status
1 | (1/1) Accurately ripped
2 | (1/1) Accurately ripped
3 | (1/1) Accurately ripped
4 | (1/1) Accurately ripped
5 | (1/1) Accurately ripped
6 | (1/1) Accurately ripped
7 | (1/1) Accurately ripped
8 | (1/1) Accurately ripped
9 | (1/1) Accurately ripped
10 | (1/1) Accurately ripped
11 | (1/1) Accurately ripped
12 | (1/1) Accurately ripped
13 | (1/1) Accurately ripped
14 | (1/1) Accurately ripped
15 | (1/1) Accurately ripped
16 | (1/1) Accurately ripped
17 | (1/1) Accurately ripped
18 | (1/1) Accurately ripped
19 | (1/1) Accurately ripped
20 | (1/1) Accurately ripped
21 | (1/1) Accurately ripped
22 | (1/1) Accurately ripped
23 | (1/1) Accurately ripped
24 | (1/1) Accurately ripped
25 | (1/1) Accurately ripped
26 | (1/1) Accurately ripped
27 | (1/1) Accurately ripped
28 | (1/1) Accurately ripped


==== Log checksum 33CC014211AA00223D586762FEE2B31660BDE9BCA4A7AFA934362E1AF0F0E90A ====

Christian Curnyn, Early Opera Company - Handel: Il Trionfo del Tempo e del Disinganno, HWV 46a (2011)