Subcategories

Christian McBride - A Family Affair (1998) {Verve}

Posted By: tiburon
Christian McBride - A Family Affair (1998) {Verve}

Christian McBride - A Family Affair (1998) {Verve}
EAC 0.99pb5 | FLAC Image level 8 | Cue+Log | Full Scans 400dpi | 408MB + 5% Recovery
MP3 CBR 320 Kbps | 154MB + 5% Recovery
Genre: Jazz, Jazz-Funk, Neo-Bop, Fusion

Christian McBride is not one of those strait-laced, down-the-line neo-boppers after all. Here, the prodigiously talented young standup bassist proves that he is also an astoundingly gifted electric bassist, and that '70s-vintage funk and soul are every bit as close to his heart as '50s and '60s hard bop. On electric, McBride weaves inventive countermelodies around tenor sax Tim Warfield's lead lines, taking Jaco Pastorius' technique a step further in sheer speed and the ability to play really nasty funk patterns.
Track List
01. I'm Coming Home
02. A Dream Of You
03. Family Affair
04. Theme From Our Fairytale
05. … Or So You Thought
06. Summer Soft
07. Brown Funk (For Ray)
08. Open Sesame
09. Wayne's World
10. I'll Write A Song For You

musicians
Christian McBride acoustic and electric basses, fretless bass, bass, synthesizer, keyboards
Russell Malone - acoustic and electric guitars
Munyungo Jackson - percussion, tambourine
Gregory Hutchinson - drums
Charles Craig - piano, Moog Synthesizer, Fender Rhodes, Wurlitzer, Mini Moog
Tim Warfield - tenor sax
Will Downing - vocals on track 2
Vesta - vocals on track 5

Produced by George Duke


Exact Audio Copy V0.99 prebeta 5 from 4. May 2009

EAC extraction logfile from 8. September 2009, 17:49

Christian McBride / A Family Affair

Used drive : Optiarc DVD RW AD-7543A Adapter: 2 ID: 0

Read mode : Secure
Utilize accurate stream : Yes
Defeat audio cache : Yes
Make use of C2 pointers : No

Read offset correction : 48
Overread into Lead-In and Lead-Out : No
Fill up missing offset samples with silence : Yes
Delete leading and trailing silent blocks : No
Null samples used in CRC calculations : Yes
Used interface : Native Win32 interface for Win NT & 2000

Used output format : Internal WAV Routines
Sample format : 44.100 Hz; 16 Bit; Stereo


TOC of the extracted CD

Track | Start | Length | Start sector | End sector
––––––––––––––––––––––––––––-
1 | 0:00.00 | 7:01.25 | 0 | 31599
2 | 7:01.25 | 4:40.70 | 31600 | 52669
3 | 11:42.20 | 6:42.70 | 52670 | 82889
4 | 18:25.15 | 6:59.60 | 82890 | 114374
5 | 25:25.00 | 5:42.40 | 114375 | 140064
6 | 31:07.40 | 6:42.00 | 140065 | 170214
7 | 37:49.40 | 6:17.32 | 170215 | 198521
8 | 44:06.72 | 9:29.18 | 198522 | 241214
9 | 53:36.15 | 7:32.17 | 241215 | 275131
10 | 61:08.32 | 4:51.58 | 275132 | 297014


Range status and errors

Selected range

Filename Z:\home\igo\eac\CDImage.wav

Peak level 100.0 %
Range quality 99.9 %
Copy CRC 63A924DB
Copy OK

No errors occurred


AccurateRip summary

Track 1 cannot be verified as accurate (confidence 7) [20EBF053], AccurateRip returned [AAECA5A4]
Track 2 cannot be verified as accurate (confidence 7) [6793E85C], AccurateRip returned [E7C72162]
Track 3 cannot be verified as accurate (confidence 7) [369EFD9B], AccurateRip returned [DD8C51CF]
Track 4 cannot be verified as accurate (confidence 7) [56DE68D0], AccurateRip returned [A4FAECA5]
Track 5 cannot be verified as accurate (confidence 7) [9A143BDC], AccurateRip returned [3ACB09FC]
Track 6 cannot be verified as accurate (confidence 7) [C5C52ED6], AccurateRip returned [678FEDDD]
Track 7 cannot be verified as accurate (confidence 7) [2A9D8AEC], AccurateRip returned [198690F4]
Track 8 cannot be verified as accurate (confidence 7) [B0855CEC], AccurateRip returned [CBC9732A]
Track 9 cannot be verified as accurate (confidence 7) [F87F75BD], AccurateRip returned [1C8E6648]
Track 10 cannot be verified as accurate (confidence 7) [6BA49757], AccurateRip returned [34FC1167]

No tracks could be verified as accurate
You may have a different pressing from the one(s) in the database

End of status report


––––––––––––––––––––––––––––––––––––––––
Analyzed: Christian McBride / A Family Affair
––––––––––––––––––––––––––––––––––––––––

DR Peak RMS Duration Track
––––––––––––––––––––––––––––––––––––––––
DR11 0.00 dB -13.00 dB 7:01 01-I'm Coming Home
DR11 0.00 dB -14.15 dB 4:41 02-A Dream of You
DR11 0.00 dB -13.91 dB 6:43 03-Family Affair
DR12 0.00 dB -15.24 dB 7:00 04-Theme from Our Fairytale
DR13 0.00 dB -15.11 dB 5:43 05-. . . Or So You Thought
DR11 0.00 dB -13.50 dB 6:42 06-Summer Soft
DR12 0.00 dB -14.30 dB 6:17 07-Brown Funk (for Ray)
DR12 0.00 dB -13.96 dB 9:29 08-Open Sesame
DR11 0.00 dB -15.73 dB 7:32 09-Wayne's World
DR10 -5.41 dB -17.84 dB 4:52 10-I'll Write a Song for You
––––––––––––––––––––––––––––––––––––––––

Number of tracks: 10
Official DR value: DR11

Samplerate: 44100 Hz
Channels: 2
Bits per sample: 16
Bitrate: 859 kbps
Codec: FLAC
================================================================================

Christian McBride - A Family Affair (1998) {Verve}
Christian McBride - A Family Affair (1998) {Verve}


Thanks to the original ripper