Tags
Language
Tags

Christian Thielemann, Orchester der Deutschen Oper Berlin - Schoenberg: Pelleas & Melisande; Wagner: Siegfried-Idyll (2000)

Posted By: ArlegZ
Christian Thielemann, Orchester der Deutschen Oper Berlin - Schoenberg: Pelleas & Melisande; Wagner: Siegfried-Idyll (2000)

Christian Thielemann, Orchester der Deutschen Oper Berlin - Schoenberg: Pelleas & Melisande; Wagner: Siegfried-Idyll (2000)
EAC | FLAC | Image (Cue & Log) ~ 254 Mb | Total time: 65:17 | Scans included
Classical | Deutsche Grammophon | 469 008-2 | Recorded: 1999

Schoenberg's Pelleas & Melisande is just Opus 5 in Schoenberg's catalog, but it comes right on the cusp of the young composer's transition to serialism. Based on Maurice Maeterlinck's stage play, it's an exuberant, youthful work that won the 29-year-old composer the recognition he had yet to receive. The work shows some influences of Richard Strauss, who had befriended Schoenberg in 1901 in Berlin. Mahler is also present. Still, for all that, this work is sui generis, a stand-alone masterpiece. It's followed by Wagner's Siegfried-Idyll, a tone poem based on the birth of his son, Siegfried. Both works are moody tone poems and maestro Christian Thielemann lovingly captures their spirit. Boulez might give Schoenberg more drama, but Thielemann sculpts both works with rounder edges and softer textures. Highly recommended.
–Paul Cook

Performer:
Orchester der Deutschen Oper Berlin
Christian Thielemann, conductor

Track List:
Arnold Schoenberg (1874-1951)
Pelleas und Melisande Op. 5
01. Die ein wenig bewegt - zögernd
02. Heftig
03. Lebhaft
04. Sehr rasch
05. Ein wenig bewegt
06. Langsam
07. Ein wenig bewegter
08. Sehr langsam
09. Etwas bewegt
10. In gehender Bewegung
11. Breit
Richard Wagner (1813-1883)
12. Siegfried Idyll, for small orchestra in E major, WWV 103


Exact Audio Copy V1.5 from 20. February 2020

EAC extraction logfile from 11. October 2020, 3:33

Arnold Schönberg / Schoenberg: Pelleas und Melisande / Wagner: Siegfried-Idyll

Used drive : ASUS DRW-24B1ST j Adapter: 1 ID: 0

Read mode : Secure
Utilize accurate stream : Yes
Defeat audio cache : Yes
Make use of C2 pointers : No

Read offset correction : 6
Overread into Lead-In and Lead-Out : No
Fill up missing offset samples with silence : Yes
Delete leading and trailing silent blocks : No
Null samples used in CRC calculations : Yes
Used interface : Native Win32 interface for Win NT & 2000

Used output format : User Defined Encoder
Selected bitrate : 896 kBit/s
Quality : High
Add ID3 tag : No
Command line compressor : C:\Program Files (x86)\Exact Audio Copy\FLAC\FLAC.EXE
Additional command line options : -6 -V -T "ARTIST=%artist%" -T "TITLE=%title%" -T "ALBUM=%albumtitle%" -T "DATE=%year%" -T "TRACKNUMBER=%tracknr%" -T "GENRE=%genre%" -T "COMMENT=%comment%" -T "BAND=%albuminterpret%" -T "ALBUMARTIST=%albuminterpret%" -T "COMPOSER=%composer%" %haslyrics%–tag-from-file=LYRICS="%lyricsfile%"%haslyrics% -T "DISCNUMBER=%cdnumber%" -T "TOTALDISCS=%totalcds%" -T "TOTALTRACKS=%numtracks%" %hascover%–picture="%coverfile%"%hascover% %source% -o %dest%


TOC of the extracted CD

Track | Start | Length | Start sector | End sector
––––––––––––––––––––––––––––-
1 | 0:00.00 | 4:16.20 | 0 | 19219
2 | 4:16.20 | 3:28.62 | 19220 | 34881
3 | 7:45.07 | 4:21.73 | 34882 | 54529
4 | 12:07.05 | 7:45.10 | 54530 | 89414
5 | 19:52.15 | 1:23.60 | 89415 | 95699
6 | 21:16.00 | 3:27.00 | 95700 | 111224
7 | 24:43.00 | 4:36.00 | 111225 | 131924
8 | 29:19.00 | 5:11.30 | 131925 | 155279
9 | 34:30.30 | 2:24.15 | 155280 | 166094
10 | 36:54.45 | 2:36.67 | 166095 | 177861
11 | 39:31.37 | 6:29.63 | 177862 | 207099
12 | 46:01.25 | 19:16.00 | 207100 | 293799


Range status and errors

Selected range

Filename D:\Altered States\Schoenberg - Pelleas und Melisande - Wagner- Siegfried-Idyll - Thielemnann - DG\Arnold Schönberg - Schoenberg- Pelleas und Melisande , Wagner- Siegfried-Idyll.wav

Peak level 99.9 %
Extraction speed 7.8 X
Range quality 100.0 %
Test CRC 1EC3273F
Copy CRC 1EC3273F
Copy OK

No errors occurred


AccurateRip summary

Track 1 accurately ripped (confidence 8) [C95CE258] (AR v2)
Track 2 accurately ripped (confidence 8) [E038800F] (AR v2)
Track 3 accurately ripped (confidence 8) [FCC4F278] (AR v2)
Track 4 accurately ripped (confidence 7) [ECC42224] (AR v2)
Track 5 accurately ripped (confidence 8) [EB657B28] (AR v2)
Track 6 accurately ripped (confidence 8) [9D5FE3FE] (AR v2)
Track 7 accurately ripped (confidence 8) [16BFF0CB] (AR v2)
Track 8 accurately ripped (confidence 8) [25DE80CD] (AR v2)
Track 9 accurately ripped (confidence 8) [6AA73168] (AR v2)
Track 10 accurately ripped (confidence 8) [C3579EEC] (AR v2)
Track 11 accurately ripped (confidence 8) [BBA5D145] (AR v2)
Track 12 accurately ripped (confidence 8) [3759EA92] (AR v2)

All tracks accurately ripped

End of status report

–– CUETools DB Plugin V2.1.6

[CTDB TOCID: UngYS_b1DLnUrvDWa2pal8G.K4M-] found
Submit result: UngYS_b1DLnUrvDWa2pal8G.K4M- has been confirmed
Track | CTDB Status
1 | (25/25) Accurately ripped
2 | (25/25) Accurately ripped
3 | (25/25) Accurately ripped
4 | (25/25) Accurately ripped
5 | (25/25) Accurately ripped
6 | (25/25) Accurately ripped
7 | (25/25) Accurately ripped
8 | (25/25) Accurately ripped
9 | (25/25) Accurately ripped
10 | (25/25) Accurately ripped
11 | (25/25) Accurately ripped
12 | (25/25) Accurately ripped


==== Log checksum 236E53B28DF8BABCF24D30D708BA0DE29AE4523870CE45D3F6F7C11471F2A07F ====

Christian Thielemann, Orchester der Deutschen Oper Berlin - Schoenberg: Pelleas & Melisande; Wagner: Siegfried-Idyll (2000)

Thanks to the original releaser