Tags
Language
Tags

Christina Pluhar, L'Arpeggiata - Mediterraneo (2013)

Posted By: ArlegZ
Christina Pluhar, L'Arpeggiata - Mediterraneo (2013)

Christina Pluhar, L'Arpeggiata - Mediterraneo (2013)
EAC | FLAC | Image (Cue & Log) ~ 355 Mb | Total time: 66:13 | Scans included
Classical | Label: Erato | 5099946454928 | Recorded: 2012

Christina Pluhar and l'Arpeggiata invite you on a musical cruise that will take you from Portugal to Turkey, following the coasts of Spain, Catalonia, Greece, and Italy, caressed by the rocking of the waves and the captivating dialogue between traditional plucked instruments of the Mediterranean region the qanun, saz, Greek lyre and lavta, the oud and Portuguese guitar and the Baroque strings of l'Arpeggiata.
Mediterraneo is truly a musical exploration of the Mediterranean Sea. The recording features the fabulous voices of Mísia, Nuria Rial, Vincenzo Capezzuto, Raquel Andueza and Aikaterini Papadopoulou who perform traditional tarantellas, sung in Greek. These folk pieces were a custom in the Baroque era in the Greek-Albanian villages of Calabria. Join Christina Pluhar on this unique musical odyssey.

Performer:
Mísia, voice (Portugal)
Nuria Rial, soprano (Catalonia)
Raquel Andueza, soprano (Spain)
Vincenzo Capezzuto, voice (Itali)
Katerina Papadopoulou, voice (Greece)
L'Arpeggiata
Christina Pluhar, theorbo & direction

Track List:
01. Are mou rindineddha: Canto greco-salentino
02. Sem saber: Portugal
03. Hasapiko: Greece
04. Tres sirenas: Neapolitan / Greek / Spanish
05. Hicâz mandira: Turkey
06. Pizzica di San Vito: Salento
07. Amygdalaki tsakisa: Greece
08. La dama d'Aragó: Catalonia
09. Amor de mel, amor de fel: Portugal
10. Güneş & ay: Turkey
11. De Santanyí vaig partir: Mallorca
12. Rosa negra no meu peito: Portugal
13. Thalassa lypisou: Greece
14. Oriamu pisulina: Canto greco-salentino
15. O Pajem: Portugal
16. Sfessania: Naples
17. Agapimu fidela protini: Canto Greco-Salentino
18. Cantigas de portugueses: Portugal
19. Los delfines: Spain


Exact Audio Copy V1.5 from 20. February 2020

EAC extraction logfile from 18. September 2020, 20:41

L'Arpeggiata, Christina Pluhar / Mediterraneo

Used drive : MATSHITADVD-RAM UJ8G6 Adapter: 1 ID: 0

Read mode : Secure
Utilize accurate stream : Yes
Defeat audio cache : Yes
Make use of C2 pointers : No

Read offset correction : 103
Overread into Lead-In and Lead-Out : No
Fill up missing offset samples with silence : Yes
Delete leading and trailing silent blocks : No
Null samples used in CRC calculations : Yes
Used interface : Native Win32 interface for Win NT & 2000

Used output format : User Defined Encoder
Selected bitrate : 1024 kBit/s
Quality : High
Add ID3 tag : No
Command line compressor : C:\Program Files (x86)\Exact Audio Copy\FLAC\FLAC.EXE
Additional command line options : -6 -V -T "ARTIST=%artist%" -T "TITLE=%title%" -T "ALBUM=%albumtitle%" -T "DATE=%year%" -T "TRACKNUMBER=%tracknr%" -T "GENRE=%genre%" -T "COMMENT=%comment%" -T "BAND=%albuminterpret%" -T "ALBUMARTIST=%albuminterpret%" -T "COMPOSER=%composer%" %haslyrics%–tag-from-file=LYRICS="%lyricsfile%"%haslyrics% -T "DISCNUMBER=%cdnumber%" -T "TOTALDISCS=%totalcds%" -T "TOTALTRACKS=%numtracks%" %hascover%–picture="%coverfile%"%hascover% %source% -o %dest%


TOC of the extracted CD

Track | Start | Length | Start sector | End sector
––––––––––––––––––––––––––––-
1 | 0:00.00 | 4:36.31 | 0 | 20730
2 | 4:36.31 | 3:26.25 | 20731 | 36205
3 | 8:02.56 | 2:17.68 | 36206 | 46548
4 | 10:20.49 | 3:42.07 | 46549 | 63205
5 | 14:02.56 | 4:42.20 | 63206 | 84375
6 | 18:45.01 | 2:20.38 | 84376 | 94913
7 | 21:05.39 | 4:19.47 | 94914 | 114385
8 | 25:25.11 | 3:40.16 | 114386 | 130901
9 | 29:05.27 | 3:06.13 | 130902 | 144864
10 | 32:11.40 | 3:37.44 | 144865 | 161183
11 | 35:49.09 | 3:56.73 | 161184 | 178956
12 | 39:46.07 | 2:43.53 | 178957 | 191234
13 | 42:29.60 | 3:34.10 | 191235 | 207294
14 | 46:03.70 | 3:05.64 | 207295 | 221233
15 | 49:09.59 | 3:28.60 | 221234 | 236893
16 | 52:38.44 | 2:58.12 | 236894 | 250255
17 | 55:36.56 | 3:08.48 | 250256 | 264403
18 | 58:45.29 | 2:57.68 | 264404 | 277746
19 | 61:43.22 | 4:29.62 | 277747 | 297983


Range status and errors

Selected range

Filename F:\RAT\0 - Attente UP\L'Arpeggiata, Christina Pluhar - Mediterraneo.wav

Peak level 100.0 %
Extraction speed 2.3 X
Range quality 99.9 %
Test CRC 0259C649
Copy CRC 0259C649
Copy OK

No errors occurred


AccurateRip summary

Track 1 cannot be verified as accurate (confidence 65) [866AC5C6], AccurateRip returned [E65B2BB7] (AR v2)
Track 2 cannot be verified as accurate (confidence 65) [1B60C9DE], AccurateRip returned [07F6537A] (AR v2)
Track 3 cannot be verified as accurate (confidence 66) [BFCE7345], AccurateRip returned [778BE3A5] (AR v2)
Track 4 cannot be verified as accurate (confidence 66) [9D087E73], AccurateRip returned [F0F28B8B] (AR v2)
Track 5 cannot be verified as accurate (confidence 65) [D6F5284A], AccurateRip returned [6198E1B1] (AR v2)
Track 6 cannot be verified as accurate (confidence 67) [A91FDBEF], AccurateRip returned [B550177C] (AR v2)
Track 7 cannot be verified as accurate (confidence 66) [69432171], AccurateRip returned [7059EAB6] (AR v2)
Track 8 cannot be verified as accurate (confidence 67) [CB83D13F], AccurateRip returned [0FAA80F8] (AR v2)
Track 9 cannot be verified as accurate (confidence 66) [2C59AFCD], AccurateRip returned [B9D92C68] (AR v2)
Track 10 cannot be verified as accurate (confidence 66) [E82273EE], AccurateRip returned [A9F750FA] (AR v2)
Track 11 cannot be verified as accurate (confidence 66) [2CCEE98F], AccurateRip returned [9D5CB221] (AR v2)
Track 12 cannot be verified as accurate (confidence 65) [3077576C], AccurateRip returned [982C8694] (AR v2)
Track 13 cannot be verified as accurate (confidence 65) [45688B0A], AccurateRip returned [D93427A9] (AR v2)
Track 14 cannot be verified as accurate (confidence 66) [EA1CDAC7], AccurateRip returned [01DB3A56] (AR v2)
Track 15 cannot be verified as accurate (confidence 67) [698D867D], AccurateRip returned [9CFE1F1F] (AR v2)
Track 16 cannot be verified as accurate (confidence 65) [A8F0C487], AccurateRip returned [35D4872A] (AR v2)
Track 17 cannot be verified as accurate (confidence 65) [6483ECA6], AccurateRip returned [5472A5CB] (AR v2)
Track 18 cannot be verified as accurate (confidence 67) [43666338], AccurateRip returned [B9729CC8] (AR v2)
Track 19 cannot be verified as accurate (confidence 66) [48A36689], AccurateRip returned [BE44D9A2] (AR v2)

No tracks could be verified as accurate
You may have a different pressing from the one(s) in the database

End of status report

–– CUETools DB Plugin V2.1.6

[CTDB TOCID: SeRoK_Nb2K6baVJbKSu.sPl5AXY-] found
Submit result: SeRoK_Nb2K6baVJbKSu.sPl5AXY- has been confirmed
Track | CTDB Status
1 | (220/220) Accurately ripped
2 | (220/220) Accurately ripped
3 | (220/220) Accurately ripped
4 | (220/220) Accurately ripped
5 | (218/220) Accurately ripped
6 | (220/220) Accurately ripped
7 | (220/220) Accurately ripped
8 | (220/220) Accurately ripped
9 | (220/220) Accurately ripped
10 | (219/220) Accurately ripped
11 | (219/220) Accurately ripped
12 | (219/220) Accurately ripped
13 | (218/220) Accurately ripped
14 | (219/220) Accurately ripped
15 | (219/220) Accurately ripped
16 | (217/220) Accurately ripped
17 | (217/220) Accurately ripped
18 | (219/220) Accurately ripped
19 | (214/220) Accurately ripped, or (3/220) differs in 5538 samples @04:29:43-04:29:48


==== Log checksum 83D7C76179C06A1836D26D2849C5DD33EEC6E53B91399287E0BF7530AC0C3957 ====

Christina Pluhar, L'Arpeggiata - Mediterraneo (2013)

Thanks to the original releaser