Tags
Language
Tags

Christof Lauer & Norwegian Brass - Heaven (2003)

Posted By: gribovar
Christof Lauer & Norwegian Brass - Heaven (2003)

Christof Lauer - Heaven (2003)
EAC Rip | FLAC (tracks+.cue+log) - 263 MB | MP3 CBR 320 kbps (LAME 3.93) - 142 MB | Covers - 7 MB
Genre: Contemporary Jazz, Ethno Jazz | RAR 3% Rec. | Label: ACT Music (9420-2)

Christmas songs! Not exactly what you’d expect from Rebekka Bakken, the risk-taking shooting star of the exploding Scandinavian vocal scene, Christof Lauer, the equally stormy and thoughtful sound magician of all timeless post-post and pre-pre styles and Geir Lysne, the most important European reviver of the big band score.
This music will certainly not be heard on the third week of Advent in the lifts of department stores. Which doesn’t mean that they approach the subject arrogantly or in an ironic deconstructive manner. They treat the spiritual templates between chorale and folksong with respect for the former aims and atmospheric uniqueness. The world-weary hits such as "Jingle Bells" and "Oh Christmas Tree" have anyway been left outside in the blizzard. Lauer’s approach to this material is without affectation based on his emotional background. His musical mentor was his father, a pastor, who had perfect pitch, could improvise fugues and often substituted for the organist at services. Lauer was as a young man greatly impressed; he continues to appreciate the complete range of church music.
Geir Lysne has set wondrous arrangements for brass performing with classic beautiful sound, the ensemble being partly made up of members of his own regular band. With their controlled dynamism, their bold voicings and original handling of dissonance they rarely leave the dignity of the church setting, even when the bright tones predominate as in "Kommet, ihr Hirten", a fairytale polyphonic reworking of the main theme.
The technical arrangements show a great variety. The voices of Rebekka Bakken and the Norwegian folk star Sondre Bratland both appear twice, singing in their mother tongue. Only one ("Nun kommt der Heiden Heiland") is reasonably well known. The other pieces are instrumentals, retaining sometimes the statuesque character of chorales, playing with melodic fragments, without quoting ever the theme in its original form ("Joseph, lieber Joseph mein"), antiphonic acclamations produced between the choral lines and the free commentaries of Lauer ("Gelobet seist Du, Jesu Christ"), or pushed forward with all imagination of the arranger into the area of the symphonic paraphrase ("Es ist ein Ros’ entsprungen").
It would be wrong and irrelevant to recommend one track in particular, where every track is different and has its own character. But we’re going to do it anyway - track 3 "Overmåde fullt av nåde", because on this one so much comes together so compellingly: the silvery sound of Rebekka Bakken’s voice, first alone, then accompanied by the full horn arrangements of Geir Lysne and finally led by Lauer’s carefully starting soprano saxophone to expressively rising collective improvisation.
Tracklist:
01. Eg Veit i himmerik ei borg (Ich weiß im Himmelreich)
02. Maria durch ein' Dornwald ging
03. Overmåde fullt av nåde
04. Die Nacht ist vorgedrungen
05. Kommet, ihr Hirten
06. Folkefrelsar til oss kom (Nun komm, der Heiden Heiland)
07. Joseph, lieber Joseph mein
08. Gelobet seist Du, Jesu Christ
09. Mitt hjerte alltid vanker
10. Wach, Nachtigall, wach auf!
11. Es ist ein Ros entsprungen

Total time: 01:00:31

Exact Audio Copy V0.99 prebeta 4 from 23. January 2008

EAC extraction logfile from 5. February 2011, 14:41

Cristof Lauer / Heaven

Used drive : Optiarc DVD RW AD-7260S Adapter: 2 ID: 0

Read mode : Secure
Utilize accurate stream : Yes
Defeat audio cache : Yes
Make use of C2 pointers : No

Read offset correction : 48
Overread into Lead-In and Lead-Out : No
Fill up missing offset samples with silence : Yes
Delete leading and trailing silent blocks : No
Null samples used in CRC calculations : Yes
Used interface : Installed external ASPI interface
Gap handling : Appended to previous track

Used output format : User Defined Encoder
Selected bitrate : 128 kBit/s
Quality : High
Add ID3 tag : No
Command line compressor : D:\Program Files\Exact Audio Copy\Flac\flac.exe
Additional command line options : -8 -V -T "ARTIST=%a" -T "TITLE=%t" -T "ALBUM=%g" -T "DATE=%y" -T "TRACKNUMBER=%n" -T "GENRE=%m" -T "COMMENT=EAC FLAC -8" %s


TOC of the extracted CD

Track | Start | Length | Start sector | End sector
––––––––––––––––––––––––––––-
1 | 0:00.00 | 5:52.00 | 0 | 26399
2 | 5:52.00 | 5:37.47 | 26400 | 51721
3 | 11:29.47 | 6:59.18 | 51722 | 83164
4 | 18:28.65 | 5:48.52 | 83165 | 109316
5 | 24:17.42 | 4:20.03 | 109317 | 128819
6 | 28:37.45 | 5:57.10 | 128820 | 155604
7 | 34:34.55 | 3:21.27 | 155605 | 170706
8 | 37:56.07 | 4:15.15 | 170707 | 189846
9 | 42:11.22 | 5:39.10 | 189847 | 215281
10 | 47:50.32 | 4:27.45 | 215282 | 235351
11 | 52:18.02 | 8:13.43 | 235352 | 272369


Track 1

Filename G:\Audio CD\#084_Christof Lauer - Heaven (2003)\Christof Lauer - Heaven (2003)\01 - Eg Veit i himmerik ei borg.wav

Pre-gap length 0:00:02.00

Peak level 88.4 %
Track quality 99.9 %
Test CRC DE933FDF
Copy CRC DE933FDF
Accurately ripped (confidence 5) [D281E56B]
Copy OK

Track 2

Filename G:\Audio CD\#084_Christof Lauer - Heaven (2003)\Christof Lauer - Heaven (2003)\02 - Maria durch ein Dornwald ging.wav

Pre-gap length 0:00:04.10

Peak level 95.5 %
Track quality 100.0 %
Test CRC CEB99A53
Copy CRC CEB99A53
Accurately ripped (confidence 5) [AD991B49]
Copy OK

Track 3

Filename G:\Audio CD\#084_Christof Lauer - Heaven (2003)\Christof Lauer - Heaven (2003)\03 - Overmade fullt av nade.wav

Pre-gap length 0:00:02.22

Peak level 96.0 %
Track quality 100.0 %
Test CRC 6C542B3C
Copy CRC 6C542B3C
Accurately ripped (confidence 5) [5E0588A7]
Copy OK

Track 4

Filename G:\Audio CD\#084_Christof Lauer - Heaven (2003)\Christof Lauer - Heaven (2003)\04 - Die Nacht ist vorgedrungen.wav

Pre-gap length 0:00:02.73

Peak level 95.7 %
Track quality 100.0 %
Test CRC 401EE7A7
Copy CRC 401EE7A7
Accurately ripped (confidence 5) [501DB23C]
Copy OK

Track 5

Filename G:\Audio CD\#084_Christof Lauer - Heaven (2003)\Christof Lauer - Heaven (2003)\05 - Kommet, ihr Hirten.wav

Pre-gap length 0:00:03.22

Peak level 96.3 %
Track quality 100.0 %
Test CRC 5A320123
Copy CRC 5A320123
Accurately ripped (confidence 5) [AA512F44]
Copy OK

Track 6

Filename G:\Audio CD\#084_Christof Lauer - Heaven (2003)\Christof Lauer - Heaven (2003)\06 - Folkefreisar til oss kom.wav

Pre-gap length 0:00:02.35

Peak level 93.9 %
Track quality 100.0 %
Test CRC 6B1BDA04
Copy CRC 6B1BDA04
Accurately ripped (confidence 5) [C5D3DB89]
Copy OK

Track 7

Filename G:\Audio CD\#084_Christof Lauer - Heaven (2003)\Christof Lauer - Heaven (2003)\07 - Joseph, lieber Joseph mein.wav

Pre-gap length 0:00:05.18

Peak level 95.3 %
Track quality 100.0 %
Test CRC 454D1FCB
Copy CRC 454D1FCB
Accurately ripped (confidence 5) [3560CE72]
Copy OK

Track 8

Filename G:\Audio CD\#084_Christof Lauer - Heaven (2003)\Christof Lauer - Heaven (2003)\08 - Gelobet seist Du, Jesu Christ.wav

Pre-gap length 0:00:02.42

Peak level 83.8 %
Track quality 100.0 %
Test CRC CCDC7A0F
Copy CRC CCDC7A0F
Accurately ripped (confidence 5) [F4FE2B4F]
Copy OK

Track 9

Filename G:\Audio CD\#084_Christof Lauer - Heaven (2003)\Christof Lauer - Heaven (2003)\09 - Mitt hjerte alltid vanker.wav

Pre-gap length 0:00:05.02

Peak level 91.8 %
Track quality 100.0 %
Test CRC F9E08E78
Copy CRC F9E08E78
Accurately ripped (confidence 5) [E1A07D2D]
Copy OK

Track 10

Filename G:\Audio CD\#084_Christof Lauer - Heaven (2003)\Christof Lauer - Heaven (2003)\10 - Wach, Nachtigall, wach auf.wav

Pre-gap length 0:00:03.12

Peak level 95.9 %
Track quality 100.0 %
Test CRC B295F024
Copy CRC B295F024
Accurately ripped (confidence 5) [B488FD19]
Copy OK

Track 11

Filename G:\Audio CD\#084_Christof Lauer - Heaven (2003)\Christof Lauer - Heaven (2003)\11 - Es ist ein Ros entsprungen.wav

Pre-gap length 0:00:03.27

Peak level 95.5 %
Track quality 100.0 %
Test CRC ED2309BD
Copy CRC ED2309BD
Accurately ripped (confidence 5) [9BAC1480]
Copy OK


All tracks accurately ripped

No errors occurred

End of status report

[CUETools log; Date: 27.07.2021 21:13:08; Version: 2.1.4]
[CTDB TOCID: oKK0ce.ojk38QEGQjzHgzjpIhNg-] found.
Track | CTDB Status
1 | (37/38) Accurately ripped
2 | (37/38) Accurately ripped
3 | (37/38) Accurately ripped
4 | (37/38) Accurately ripped
5 | (37/38) Accurately ripped
6 | (38/38) Accurately ripped
7 | (38/38) Accurately ripped
8 | (38/38) Accurately ripped
9 | (38/38) Accurately ripped
10 | (38/38) Accurately ripped
11 | (37/38) Accurately ripped
[AccurateRip ID: 001900bb-00d62372-900e2f0b] found.
Track [ CRC | V2 ] Status
01 [d281e56b|9c9e759e] (07+20/27) Accurately ripped
02 [ad991b49|c43b2a5d] (07+20/27) Accurately ripped
03 [5e0588a7|53255293] (07+20/27) Accurately ripped
04 [501db23c|6703e149] (07+20/27) Accurately ripped
05 [aa512f44|d096d2c8] (07+20/27) Accurately ripped
06 [c5d3db89|874b5810] (07+20/27) Accurately ripped
07 [3560ce72|eaaa3acb] (07+20/27) Accurately ripped
08 [f4fe2b4f|c502ac2e] (07+20/27) Accurately ripped
09 [e1a07d2d|b6465f5c] (07+20/27) Accurately ripped
10 [b488fd19|a94a9ea7] (07+20/27) Accurately ripped
11 [9bac1480|53385e98] (07+20/27) Accurately ripped

Track Peak [ CRC32 ] [W/O NULL] [ LOG ]
– 96,3 [F64C08FD] [C4EA141A]
01 88,4 [DE933FDF] [B98A336C] CRC32
02 95,5 [CEB99A53] [C5990E11] CRC32
03 96,0 [6C542B3C] [4EEE3C7F] CRC32
04 95,7 [401EE7A7] [DFE61D72] CRC32
05 96,3 [5A320123] [12844380] CRC32
06 93,9 [6B1BDA04] [6283C95E] CRC32
07 95,3 [454D1FCB] [144701D7] CRC32
08 83,8 [CCDC7A0F] [7B152A30] CRC32
09 91,8 [F9E08E78] [4F8CCF74] CRC32
10 95,9 [B295F024] [822AE090] CRC32
11 95,5 [ED2309BD] [E4561ED5] CRC32

Thanks to readab