Tags
Language
Tags

Christophe Coin, Ensemble Baroque de Limoges, Choeur de Chambre Accentus - Bach: Cantates BWV 41, 6, 68 (1996)

Posted By: ArlegZ
Christophe Coin, Ensemble Baroque de Limoges, Choeur de Chambre Accentus - Bach: Cantates BWV 41, 6, 68 (1996)

Christophe Coin, Ensemble Baroque de Limoges, Choeur de Chambre Accentus - Bach: Cantates BWV 41, 6, 68 (1996)
EAC | FLAC | Image (Cue & Log) ~ 271 Mb | Total time: 62:20 | Scans included
Classical | Label: Astrée | # E 8555 | Recorded: 1995

On Astrée E 8855 there are three sacred cantatas. The first is Jesu, nun sei gepreiset (Jesus, now be praised), BWV 41. Bach wrote the six movement score in 1725 to celebrate New Year's Day (Circumcision of Christ, Feast of the Holy Name of Jesus). The composer wrote parts for all four soloists and a four-part chorus. There is a rich and varied instrumentation: a piccolo cello in a concerted part, three trumpets, three oboes, strings, basso continuo with the addition of timpani. Of the two chorales the uplifting and sparkling first chorus with its trumpet fanfare lasts over eight minutes.
The six-movement chorale cantata Bleib bei uns, denn es will Abend werden (Abide with us, for it is toward evening), BWV 6 was written and first performed in 1725 for Easter Monday. Bach’s instrumentation is for a piccolo cello in a concerted part, a pair of oboes, an oboe da caccia, strings and basso continuo. All four soloists are required and a four-part chorus that is used in the opening and closing chorales.
From 1725 Bach wrote his short cantata Also hat Gott die Welt geliebt (For God so loved the world), BWV 68 for Whit Monday (the second day of the feast of Pentecost). This short cantata is cast in five movements and begins and ends with a chorale for chorus. Bach uses just the soprano and the bass as soloists with a four-part chorus. The instrumentation calls for a cornet and three trombones, a pair of oboes, a tenor oboe, a cello piccolo, strings and basso continuo. The soprano aria uses an adaptation of the famous melody (Sheep may safely graze) from the secular cantata, BWV 208 known as the ‘The Hunt’.
– Michael Cookson

Performer:
Barbara Schlick, soprano
Andreas Scholl, alto
Christoph Prégardien, ténor
Gotthold Schwarz, basse
Choeur de Chambre Accentus
Ensemble Baroque de Limoges
Christophe Coin, violoncelle piccolo & direction

Track List:
Cantate BWV 41 "Jesu, nun sei gepreiset"
01. Choral: Jesu, nun sei gepreiset
02. Aria (Sopran): Laß uns, o höchster Gott
03. Recitativo (Alt): Ach! deine hand
04. Aria (Tenor): Woferne du den edlen Freiden
05. Recitativo (Baß e coro): Doch weil der Feind
06. Choral: Dein ist allein die Ehre
Cantate BWV 6 "Bleib bei uns, denn es will Abend werden"
07. Choral: Bleib bei uns, denn es will Abend werden
08. Aria (Alt): Hochgelobter Gottessohn
09. Choral (Sopran): Ach, bleib bei uns, Herr Jesu Christ
10. Recitativo (Baß): Es hat die Dunkelbeit an vielen Orten
11. Aria (Tenor): Jesu, laß uns auf dich sehen
12. Choral: Beweis dein Macht, Herr Jesu Christ
Cantate BWV 68 "Also hat Gott die Welt geliebt"
13. Choral: Also hat Gott die Welt geliebt
14. Aria (Sopran): Mein gläubiges Herze
15. Recitativo (Baß): Ich bin mit Petro nicht vermessen
16. Aria (Baß): Du bist geboren mir zugute
17. Choral: Wer an ihn gläubet


Exact Audio Copy V1.6 from 23. October 2020

EAC extraction logfile from 16. August 2021, 14:50

Christophe Coin, Accentus, Ensemble Baroque de Limoges / Bach - Cantates BWV 41, 6, 68

Used drive : PIONEER DVD-RW DVR-218L Adapter: 1 ID: 0

Read mode : Secure
Utilize accurate stream : Yes
Defeat audio cache : Yes
Make use of C2 pointers : No

Read offset correction : 6
Overread into Lead-In and Lead-Out : No
Fill up missing offset samples with silence : Yes
Delete leading and trailing silent blocks : No
Null samples used in CRC calculations : Yes
Used interface : Native Win32 interface for Win NT & 2000

Used output format : User Defined Encoder
Selected bitrate : 128 kBit/s
Quality : High
Add ID3 tag : No
Command line compressor : C:\Program Files\Exact Audio Copy\Flac\flac.exe
Additional command line options : -V -8 -T "Date=%year%" -T "Genre=%genre%" %source%


TOC of the extracted CD

Track | Start | Length | Start sector | End sector
––––––––––––––––––––––––––––-
1 | 0:00.00 | 8:23.67 | 0 | 37791
2 | 8:23.67 | 5:33.53 | 37792 | 62819
3 | 13:57.45 | 1:02.25 | 62820 | 67494
4 | 14:59.70 | 8:42.67 | 67495 | 106711
5 | 23:42.62 | 1:02.00 | 106712 | 111361
6 | 24:44.62 | 2:11.50 | 111362 | 121236
7 | 26:56.37 | 5:45.13 | 121237 | 147124
8 | 32:41.50 | 3:53.20 | 147125 | 164619
9 | 36:34.70 | 4:01.40 | 164620 | 182734
10 | 40:36.35 | 0:50.17 | 182735 | 186501
11 | 41:26.52 | 4:09.15 | 186502 | 205191
12 | 45:35.67 | 0:46.10 | 205192 | 208651
13 | 46:22.02 | 5:13.38 | 208652 | 232164
14 | 51:35.40 | 3:49.22 | 232165 | 249361
15 | 55:24.62 | 0:51.15 | 249362 | 253201
16 | 56:16.02 | 3:19.58 | 253202 | 268184
17 | 59:35.60 | 2:39.15 | 268185 | 280124


Range status and errors

Selected range

Filename C:\ArlegZ\Bach - Cantates BWV 41, 6, 68 - Christophe Coin.wav

Peak level 88.7 %
Extraction speed 1.8 X
Range quality 99.9 %
Test CRC 97D97DC7
Copy CRC 97D97DC7
Copy OK

No errors occurred


AccurateRip summary

Track 1 accurately ripped (confidence 11) [A2E9C0F2] (AR v2)
Track 2 accurately ripped (confidence 11) [9A6DDD5A] (AR v2)
Track 3 accurately ripped (confidence 11) [A3A73871] (AR v2)
Track 4 accurately ripped (confidence 10) [1057F570] (AR v2)
Track 5 accurately ripped (confidence 11) [22066451] (AR v2)
Track 6 accurately ripped (confidence 11) [B1BBAFDD] (AR v2)
Track 7 accurately ripped (confidence 11) [0C2A6403] (AR v2)
Track 8 accurately ripped (confidence 11) [A684F1AF] (AR v2)
Track 9 accurately ripped (confidence 11) [31176886] (AR v2)
Track 10 accurately ripped (confidence 11) [EED06049] (AR v2)
Track 11 accurately ripped (confidence 11) [A960CB67] (AR v2)
Track 12 accurately ripped (confidence 11) [6292781E] (AR v2)
Track 13 accurately ripped (confidence 11) [2A1BD436] (AR v2)
Track 14 accurately ripped (confidence 11) [1642A8C7] (AR v2)
Track 15 accurately ripped (confidence 11) [DE86F5B7] (AR v2)
Track 16 accurately ripped (confidence 11) [D2262BB4] (AR v2)
Track 17 accurately ripped (confidence 11) [D9436638] (AR v2)

All tracks accurately ripped

End of status report

–– CUETools DB Plugin V2.1.6

[CTDB TOCID: _8k1WTnzdv1E0cgvdYvTTocYA3s-] found
Submit result: already submitted
Track | CTDB Status
1 | (47/47) Accurately ripped
2 | (47/47) Accurately ripped
3 | (47/47) Accurately ripped
4 | (47/47) Accurately ripped
5 | (47/47) Accurately ripped
6 | (47/47) Accurately ripped
7 | (47/47) Accurately ripped
8 | (47/47) Accurately ripped
9 | (47/47) Accurately ripped
10 | (46/47) Accurately ripped
11 | (47/47) Accurately ripped
12 | (47/47) Accurately ripped
13 | (47/47) Accurately ripped
14 | (47/47) Accurately ripped
15 | (47/47) Accurately ripped
16 | (47/47) Accurately ripped
17 | (47/47) Accurately ripped


==== Log checksum C2BCBFE5386C11541AAC5A3E8516740FB50C86E9515F4DA51E52A491C4196ED1 ====

Christophe Coin, Ensemble Baroque de Limoges, Choeur de Chambre Accentus - Bach: Cantates BWV 41, 6, 68 (1996)