Tags
Language
Tags

Christophe Rousset, Les Talens Lyriques - Leonardo Leo: Miserere - Music from the Royal Chapel, Naples (2002)

Posted By: ArlegZ
Christophe Rousset, Les Talens Lyriques - Leonardo Leo: Miserere - Music from the Royal Chapel, Naples (2002)

Christophe Rousset, Les Talens Lyriques - Leonardo Leo: Miserere - Music from the Royal Chapel, Naples (2002)
EAC | FLAC | Image (Cue & Log) ~ 287 Mb | Total time: 69:50 | Scans included
Classical | Label: Decca ‎| 460 020-2 | Recorded: 2002

Neapolitan music of the 18th century, so important in the formation of the musical lingua franca of the Classical period, is a massively neglected area wherein lie many riches. Despite his greater interest in opera, Leo was maestro di cappella at the Naples royal chapel and composed a good deal of church music, especially towards the end of his life (he died in 1744), in which sound counterpoint and the clarity of modern melodic developments are successfully combined. These are not sterile exercises in ‘old-style’ polyphony, but works of honest, thoroughly Italianate expression.
Christophe Rousset and his ensemble get the balance between solemnity and passion just right. Misereris omnium, Domine, Reminiscere miserationum and Judica me Deus are performed by solo voices and continuo, and display surprising drama for what are basically liturgical bits and pieces. The singing here may not appeal to lovers of well-modulated choral sound, but it is expressive and suits the music. The three Good Friday Lamentations, for solo voice and continuo, are even more theatrical, switching from mournful lyricism to urgent declamation with assured ease (two of them end in angry bursts of recitative). Anne-Lise Sollied, Hilary Summers and Sandrine Piau each sings her allotted ‘Lesson’ with skill and conviction. –Lindsay Kemp

Performer:
Sandrine Piau, soprano
Anne-Lise Sollied, soprano
Hilary Summers, contralto
Jean-François Novelli, tenor
Renaud Delaigue, bass
Les Talens Lyriques
Christophe Rousset, conductor

Track List:
Leonardo Leo (1694-1744)
Misereris Omnium, Domine
01. Misereris omnium, Domine
02. Miserere mei Deus
03. Adjuva nos, Deus salutaris noster
Reminiscere miserationum
04. Reminiscere miserationum
05. Tribulationes cordis mei
06. Intellige clamorem meum
Salve Regina
07. Salve Regina, mater misericordiae
08. Ad te clamamus
09. Ad te suspiramus
10. Eja ergo, advocata nostra
11. O clemens, o pia
Judica me Deus
12. Judica me Deus
13. Eripe me, Domine
14. Hoc corpus quod pro vobis tradetur
Lamentations of Jeremiah (Good Friday Tenebrae)
15. Lesson I: De Lamentatione Jeremiae Prophetae
16. Lesson II: Aleph. Quomodo obscurantum est aurum
17. Lesson III: Incipit Oratio Jeremiae Prophetae


Exact Audio Copy V1.2 from 12. August 2016

EAC extraction logfile from 2. March 2017, 22:38

Christophe Rousset / Sacred Music

Used drive : MATSHITADVD-RAM UJ8G6 Adapter: 1 ID: 0

Read mode : Secure
Utilize accurate stream : Yes
Defeat audio cache : Yes
Make use of C2 pointers : No

Read offset correction : 103
Overread into Lead-In and Lead-Out : No
Fill up missing offset samples with silence : Yes
Delete leading and trailing silent blocks : No
Null samples used in CRC calculations : Yes
Used interface : Native Win32 interface for Win NT & 2000

Used output format : User Defined Encoder
Selected bitrate : 768 kBit/s
Quality : High
Add ID3 tag : No
Command line compressor : C:\Program Files (x86)\Exact Audio Copy\Flac\flac.exe
Additional command line options : -6 -V -T "ARTIST=%artist%" -T "TITLE=%title%" -T "ALBUM=%albumtitle%" -T "DATE=%year%" -T "TRACKNUMBER=%tracknr%" -T "GENRE=%genre%" -T "COMMENT=%comment%" -T "BAND=%albuminterpret%" -T "ALBUMARTIST=%albuminterpret%" -T "COMPOSER=%composer%" %haslyrics%–tag-from-file=LYRICS="%lyricsfile%"%haslyrics% -T "DISCNUMBER=%cdnumber%" -T "TOTALDISCS=%totalcds%" -T "TOTALTRACKS=%numtracks%" %hascover%–picture="%coverfile%"%hascover% %source% -o %dest%


TOC of the extracted CD

Track | Start | Length | Start sector | End sector
––––––––––––––––––––––––––––-
1 | 0:00.00 | 2:01.01 | 0 | 9075
2 | 2:01.01 | 1:53.39 | 9076 | 17589
3 | 3:54.40 | 1:54.57 | 17590 | 26196
4 | 5:49.22 | 1:36.59 | 26197 | 33455
5 | 7:26.06 | 2:01.40 | 33456 | 42570
6 | 9:27.46 | 3:05.64 | 42571 | 56509
7 | 12:33.35 | 4:01.35 | 56510 | 74619
8 | 16:34.70 | 3:00.04 | 74620 | 88123
9 | 19:34.74 | 3:47.09 | 88124 | 105157
10 | 23:22.08 | 3:55.33 | 105158 | 122815
11 | 27:17.41 | 3:50.70 | 122816 | 140135
12 | 31:08.36 | 3:10.72 | 140136 | 154457
13 | 34:19.33 | 1:23.72 | 154458 | 160754
14 | 35:43.30 | 5:07.21 | 160755 | 183800
15 | 40:50.51 | 11:35.03 | 183801 | 235928
16 | 52:25.54 | 8:34.10 | 235929 | 274488
17 | 60:59.64 | 8:54.26 | 274489 | 314564


Range status and errors

Selected range

Filename C:\Users\Roy\Music\LEO - Miserere\CD (FLAC + CUE)\Leonardo Leo - Sacred Music.wav

Peak level 99.8 %
Extraction speed 4.4 X
Range quality 100.0 %
Test CRC 3A1A8990
Copy CRC 3A1A8990
Copy OK

No errors occurred


AccurateRip summary

Track 1 accurately ripped (confidence 6) [F769D9D2] (AR v2)
Track 2 accurately ripped (confidence 6) [C9EBF093] (AR v2)
Track 3 accurately ripped (confidence 6) [7B4CE390] (AR v2)
Track 4 accurately ripped (confidence 6) [CC2E7E4D] (AR v2)
Track 5 accurately ripped (confidence 6) [0A6696AB] (AR v2)
Track 6 accurately ripped (confidence 6) [0D2C5AA6] (AR v2)
Track 7 accurately ripped (confidence 6) [E057E428] (AR v2)
Track 8 accurately ripped (confidence 6) [2D1FE001] (AR v2)
Track 9 accurately ripped (confidence 6) [F92F0909] (AR v2)
Track 10 accurately ripped (confidence 6) [B35980FD] (AR v2)
Track 11 accurately ripped (confidence 6) [D54B9DE6] (AR v2)
Track 12 accurately ripped (confidence 6) [AC53409D] (AR v2)
Track 13 accurately ripped (confidence 6) [97F5A6D4] (AR v2)
Track 14 accurately ripped (confidence 6) [83738D83] (AR v2)
Track 15 accurately ripped (confidence 6) [15F437C7] (AR v2)
Track 16 accurately ripped (confidence 6) [F7C8312C] (AR v2)
Track 17 accurately ripped (confidence 6) [E04BE999] (AR v2)

All tracks accurately ripped

End of status report

–– CUETools DB Plugin V2.1.6

[CTDB TOCID: tJw7_22GNucM63jBDcmp0gSGzzo-] found
Submit result: already submitted
Track | CTDB Status
1 | (5/5) Accurately ripped
2 | (5/5) Accurately ripped
3 | (5/5) Accurately ripped
4 | (5/5) Accurately ripped
5 | (5/5) Accurately ripped
6 | (5/5) Accurately ripped
7 | (5/5) Accurately ripped
8 | (5/5) Accurately ripped
9 | (5/5) Accurately ripped
10 | (5/5) Accurately ripped
11 | (5/5) Accurately ripped
12 | (5/5) Accurately ripped
13 | (5/5) Accurately ripped
14 | (5/5) Accurately ripped
15 | (5/5) Accurately ripped
16 | (5/5) Accurately ripped
17 | (5/5) Accurately ripped


==== Log checksum 8A36E215876CC347DFFB40C4A14914CF92429CB871EB7D465ECD8E5214CF921C ====

Christophe Rousset, Les Talens Lyriques - Leonardo Leo: Miserere - Music from the Royal Chapel, Naples (2002)

Thanks to the original releaser