Tags
Language
Tags

Circle - 4 Studio Albums (2000-2006)

Posted By: gribovar
Circle - 4 Studio Albums (2000-2006)

Circle - 4 Studio Albums (2000-2006)
EAC Rip | WavPack (image+.cue+log) - 1,6 GB | MP3 CBR 320 kbps (LAME 3.93) - 542 MB | Covers - 224 MB
Genre: Psychedelic/Space Rock | RAR 3% Rec. | Label: Essence Music, Klangbad, Ektro Records

Circle are probably the most well known band of the Finnish underground music scene. Circle has secure their place as one of the best modern Space Rock/Krautrock exponents in recent years and now with every new release they're setting a goal for one of the best modern Experimental Rock bands in recent years. With such a varied discography and eclectic style, adventurous music fans will certainly enjoy this band.
Formed in 1991 in Pori, the band started as a 3 piece making aggressive music with influences from Spacemen 3, Loop and grunge bands. The members that started it all were Jussi Lehtisalo (guitars), Juha Ahtiainen (drums) and Marko Taipale (bass). With the first line-up they only managed to make one EP, "DNA/Independence" and then Marko left the band and was replaced by Mauri Päivistö. After releasing another EP, "Point", in 1993 we saw the addition of a second guitarist, Teemu Elo, and released yet another EP, "Silver". The line-up in 1993-1994 (along with keyboardist Petri Hagner and lighting technician Juha-Pekka Hietaniemi) was considered the "legendary line-up". They released their first studio albums, "Meronia" and "Zopalki" under this line-up and they even invented a language like Magma called "Meronian".

Circle - 4 Studio Albums (2000-2006)

Circle - Prospekt (2000) [Reissue 2011]
EAC Rip | WavPack (image+.cue+log) - 500 MB | MP3 CBR 320 kbps (LAME 3.93) - 159 MB | Covers - 30 MB
Genre: Psychedelic/Space Rock | RAR 3% Rec. | Label: Essence Music (ESS017)

Tracklist:
01. Dedofiktion
02. Gericht
03. Stimulance
04. Varhain
05. Aarre
06. Eripwre
07. Työläisten Laulu (Encore Apocalypse Mix)

Total time: 01:07:45

Exact Audio Copy V1.0 beta 1 from 15. November 2010

EAC extraction logfile from 25. January 2012, 22:19

Circle / Prospekt

Used drive : HL-DT-STDVDRAM GH22NS50 Adapter: 0 ID: 1

Read mode : Secure
Utilize accurate stream : Yes
Defeat audio cache : Yes
Make use of C2 pointers : No

Read offset correction : 667
Overread into Lead-In and Lead-Out : No
Fill up missing offset samples with silence : Yes
Delete leading and trailing silent blocks : No
Null samples used in CRC calculations : Yes
Used interface : Installed external ASPI interface

Used output format : Benutzerdefinierter Komprimierer
Selected bitrate : 1024 kBit/s
Quality : High
Add ID3 tag : No
Command line compressor : C:\Program Files (x86)\wavpack\wavpack.exe
Additional command line options : -hm -w "Year=%y" -w "Genre=%m" %s %d


TOC of the extracted CD

Track | Start | Length | Start sector | End sector
––––––––––––––––––––––––––––-
1 | 0:00.00 | 8:25.03 | 0 | 37877
2 | 8:25.03 | 6:46.61 | 37878 | 68388
3 | 15:11.64 | 6:57.41 | 68389 | 99704
4 | 22:09.30 | 6:51.02 | 99705 | 130531
5 | 29:00.32 | 10:19.11 | 130532 | 176967
6 | 39:19.43 | 10:42.02 | 176968 | 225119
7 | 50:01.45 | 17:43.63 | 225120 | 304907


Range status and errors

Selected range

Filename M:\C\Circle\Prospekt\LossLess\Circle - Prospekt.wav

Peak level 96.1 %
Extraction speed 0.5 X
Range quality 100.0 %
Test CRC D6F0E57C
Copy CRC D6F0E57C
Copy OK

No errors occurred


AccurateRip summary

Track 1 not present in database
Track 2 not present in database
Track 3 not present in database
Track 4 not present in database
Track 5 not present in database
Track 6 not present in database
Track 7 not present in database

None of the tracks are present in the AccurateRip database

End of status report

==== Log checksum 4782613253D6DDD5B2253F8753A5BAF81C3DA001229ECC218DC38D487A2EE559 ====

[CUETools log; Date: 26.10.2020 16:30:18; Version: 2.1.4]
[CTDB TOCID: T83rkDR_AORVSq6abRqZemwQrLQ-] found.
Track | CTDB Status
1 | (4/4) Accurately ripped
2 | (4/4) Accurately ripped
3 | (4/4) Accurately ripped
4 | (4/4) Accurately ripped
5 | (4/4) Accurately ripped
6 | (4/4) Accurately ripped
7 | (4/4) Accurately ripped
[AccurateRip ID: 000fec2c-0061cc64-430fe107] found.
Track [ CRC | V2 ] Status
01 [761b217d|f873a3bb] (0+2/2) Accurately ripped
02 [ad3005a4|2d32937f] (0+2/2) Accurately ripped
03 [12db0ba1|fc173da6] (0+2/2) Accurately ripped
04 [e510a1e3|c37cc856] (0+2/2) Accurately ripped
05 [4eb945f1|b635aad4] (0+2/2) Accurately ripped
06 [cbd79d61|a904d550] (0+2/2) Accurately ripped
07 [214466e5|1c3af2af] (0+2/2) Accurately ripped

Track Peak [ CRC32 ] [W/O NULL] [ LOG ]
– 96,1 [D6F0E57C] [14DB8E78] CRC32
01 96,1 [FDCD8307] [29B1C278]
02 96,1 [595E45EF] [0E8E6546]
03 96,1 [2BA6A52F] [D9D7354C]
04 96,1 [60B80A42] [EF359469]
05 96,1 [2D9F7851] [B87EC46E]
06 96,1 [9689B897] [88618C77]
07 96,0 [8F45AF76] [724CF2E5]

Circle - 4 Studio Albums (2000-2006)

Circle - Alotus (2002)
EAC Rip | WavPack (image+.cue+log) - 268 MB | MP3 CBR 320 kbps (LAME 3.93) - 111 MB | Covers - 57 MB
Genre: Psychedelic/Space Rock | RAR 3% Rec. | Label: Klangbad (EFA 06295-2)

Tracklist:
01. Työläisten Laulu
02. Alotus
03. Northern Sky
04. Lopetus
05. Potto

Total time: 47:11

Exact Audio Copy V1.0 beta 1 from 15. November 2010

EAC extraction logfile from 15. February 2011, 19:09

Circle / Alotus

Used drive : HL-DT-STDVDRAM GH22NS50 Adapter: 1 ID: 0

Read mode : Secure
Utilize accurate stream : Yes
Defeat audio cache : Yes
Make use of C2 pointers : No

Read offset correction : 667
Overread into Lead-In and Lead-Out : No
Fill up missing offset samples with silence : Yes
Delete leading and trailing silent blocks : No
Null samples used in CRC calculations : Yes
Used interface : Installed external ASPI interface

Used output format : Benutzerdefinierter Komprimierer
Selected bitrate : 1024 kBit/s
Quality : High
Add ID3 tag : No
Command line compressor : C:\Program Files (x86)\wavpack\wavpack.exe
Additional command line options : -hm -w "Year=%y" -w "Genre=%m" %s %d


TOC of the extracted CD

Track | Start | Length | Start sector | End sector
––––––––––––––––––––––––––––-
1 | 0:00.00 | 11:45.02 | 0 | 52876
2 | 11:45.02 | 11:26.18 | 52877 | 104344
3 | 23:11.20 | 2:37.23 | 104345 | 116142
4 | 25:48.43 | 11:10.56 | 116143 | 166448
5 | 36:59.24 | 10:11.62 | 166449 | 212335


Range status and errors

Selected range

Filename M:\C\Circle\Alotus\LossLess\Circle - Alotus.wav

Peak level 99.2 %
Extraction speed 0.3 X
Range quality 100.0 %
Test CRC 0FCD48C5
Copy CRC 0FCD48C5
Copy OK

No errors occurred


AccurateRip summary

Track 1 accurately ripped (confidence 1) [4F2DF156]
Track 2 accurately ripped (confidence 1) [24ED800D]
Track 3 accurately ripped (confidence 1) [CB9A68A5]
Track 4 accurately ripped (confidence 1) [2FD7F4AA]
Track 5 accurately ripped (confidence 1) [52CA91FF]

All tracks accurately ripped

End of status report

==== Log checksum CBF6720AB68C36D164F1BF6DF76E5F2E9A1D5139C1C82D8C7224525A290816FE ====

[CUETools log; Date: 26.10.2020 15:43:38; Version: 2.1.4]
[CTDB TOCID: YJkiXPp5GhwCWnIOT2oJXUQto6o-] found.
Track | CTDB Status
1 | (5/5) Accurately ripped
2 | (5/5) Accurately ripped
3 | (5/5) Accurately ripped
4 | (5/5) Accurately ripped
5 | (5/5) Accurately ripped
[AccurateRip ID: 0009f376-002d9e37-320b0f05] found.
Track [ CRC | V2 ] Status
01 [4f2df156|c39544b6] (2+5/7) Accurately ripped
02 [24ed800d|5c17239e] (2+5/7) Accurately ripped
03 [cb9a68a5|6a523ec1] (2+5/7) Accurately ripped
04 [2fd7f4aa|67c01374] (2+5/7) Accurately ripped
05 [52ca91ff|0d2b265b] (2+5/7) Accurately ripped

Track Peak [ CRC32 ] [W/O NULL] [ LOG ]
– 99,2 [0FCD48C5] [8801BB32] CRC32
01 95,3 [D28240BA] [51972144]
02 96,8 [867F571A] [9A7AD3C7]
03 63,8 [EDE3BDE3] [A27DD25A]
04 81,2 [CD80766A] [4D2A90C4]
05 99,2 [3B24E141] [737FF2D1]

Circle - 4 Studio Albums (2000-2006)

Circle - Tulikoira (2005) [Reissue 2009]
EAC Rip | WavPack (image+.cue+log) - 298 MB | MP3 CBR 320 kbps (LAME 3.93) - 101 MB | Covers - 41 MB
Genre: Psychedelic/Space Rock | RAR 3% Rec. | Label: Ektro Records (Ektro-033)

Tracklist:
01. Rautakäärme
02. Tulilintu
03. Berserk
04. Puutiikeri

Total time: 43:13

Exact Audio Copy V1.0 beta 1 from 15. November 2010

EAC extraction logfile from 2. April 2011, 2:02

Circle / Tulikoira

Used drive : HL-DT-STDVDRAM GH22NS50 Adapter: 3 ID: 0

Read mode : Secure
Utilize accurate stream : Yes
Defeat audio cache : Yes
Make use of C2 pointers : No

Read offset correction : 667
Overread into Lead-In and Lead-Out : No
Fill up missing offset samples with silence : Yes
Delete leading and trailing silent blocks : No
Null samples used in CRC calculations : Yes
Used interface : Installed external ASPI interface

Used output format : Benutzerdefinierter Komprimierer
Selected bitrate : 1024 kBit/s
Quality : High
Add ID3 tag : No
Command line compressor : C:\Program Files (x86)\wavpack\wavpack.exe
Additional command line options : -hm -w "Year=%y" -w "Genre=%m" %s %d


TOC of the extracted CD

Track | Start | Length | Start sector | End sector
––––––––––––––––––––––––––––-
1 | 0:00.00 | 7:05.04 | 0 | 31878
2 | 7:05.04 | 3:50.11 | 31879 | 49139
3 | 10:55.15 | 8:03.36 | 49140 | 85400
4 | 18:58.51 | 24:13.63 | 85401 | 194438


Range status and errors

Selected range

Filename M:\C\Circle\Tulikoira\LossLess\Circle - Tulikoira.wav

Peak level 96.1 %
Extraction speed 0.9 X
Range quality 100.0 %
Test CRC E3A2F2EB
Copy CRC E3A2F2EB
Copy OK

No errors occurred


AccurateRip summary

Track 1 not present in database
Track 2 not present in database
Track 3 not present in database
Track 4 not present in database

None of the tracks are present in the AccurateRip database

End of status report

==== Log checksum F7F04CE43D87495894FA97C2F13726A2EF1949A36BEA755660640BCA7AD8AE08 ====

[CUETools log; Date: 26.10.2020 16:22:04; Version: 2.1.4]
[CTDB TOCID: tmGlOy1PsJc7q2uxmeHtT2FUtzU-] found.
Track | CTDB Status
1 | (5/5) Accurately ripped
2 | (5/5) Accurately ripped
3 | (5/5) Accurately ripped
4 | (5/5) Accurately ripped
[AccurateRip ID: 0005819b-001744f2-270a2004] found.
Track [ CRC | V2 ] Status
01 [66448a97|7958b62f] (0+2/2) Accurately ripped
02 [2f18fa1a|e6694516] (0+2/2) Accurately ripped
03 [db59060a|a81c6006] (0+2/2) Accurately ripped
04 [6bb3fad3|2dfd065f] (0+2/2) Accurately ripped

Track Peak [ CRC32 ] [W/O NULL] [ LOG ]
– 96,1 [E3A2F2EB] [5DF19877] CRC32
01 96,1 [B1C3A2B2] [E1477A68]
02 96,1 [6DE89B18] [A98EBB50]
03 96,1 [E96052D9] [BFCD1AE4]
04 96,1 [7ED19A21] [BF910FB4]

Circle - 4 Studio Albums (2000-2006)

Circle - Miljard (2006)
EAC Rip | WavPack (image+.cue+log) - 532 MB | MP3 CBR 320 kbps (LAME 3.93) - 271 MB | Covers - 96 MB
Genre: Psychedelic/Space Rock, Ambient | RAR 3% Rec. | Label: Ektro Records (Ektro-040)

CD 1 Tracklist:
01. Parmalee
02. B.F.F.
03. Duunila
04. Manni
05. Salenius

Total time: 01:03:12

CD 2 Tracklist:
01. Sophie
02. Muhle
03. Cornelia
04. Bakkis
05. Viitane

Total time: 51:58

Exact Audio Copy V1.0 beta 1 from 15. November 2010

EAC extraction logfile from 2. April 2011, 3:14

Circle / Miljard CD1

Used drive : HL-DT-STDVDRAM GH22NS50 Adapter: 3 ID: 0

Read mode : Secure
Utilize accurate stream : Yes
Defeat audio cache : Yes
Make use of C2 pointers : No

Read offset correction : 667
Overread into Lead-In and Lead-Out : No
Fill up missing offset samples with silence : Yes
Delete leading and trailing silent blocks : No
Null samples used in CRC calculations : Yes
Used interface : Installed external ASPI interface

Used output format : Benutzerdefinierter Komprimierer
Selected bitrate : 1024 kBit/s
Quality : High
Add ID3 tag : No
Command line compressor : C:\Program Files (x86)\wavpack\wavpack.exe
Additional command line options : -hm -w "Year=%y" -w "Genre=%m" %s %d


TOC of the extracted CD

Track | Start | Length | Start sector | End sector
––––––––––––––––––––––––––––-
1 | 0:00.00 | 19:58.00 | 0 | 89849
2 | 19:58.00 | 8:14.54 | 89850 | 126953
3 | 28:12.54 | 21:11.37 | 126954 | 222315
4 | 49:24.16 | 8:45.59 | 222316 | 261749
5 | 58:10.00 | 5:01.39 | 261750 | 284363


Range status and errors

Selected range

Filename M:\C\Circle\Miljard\LossLess\Circle - Miljard CD1.wav

Peak level 96.5 %
Extraction speed 0.1 X
Range quality 99.9 %
Test CRC 44BB47B2
Copy CRC 44BB47B2
Copy OK

No errors occurred


AccurateRip summary

Track 1 accurately ripped (confidence 5) [F3BBD410]
Track 2 accurately ripped (confidence 5) [EA1E8940]
Track 3 accurately ripped (confidence 5) [066CF51F]
Track 4 accurately ripped (confidence 5) [3B3706FB]
Track 5 accurately ripped (confidence 5) [27B2111C]

All tracks accurately ripped

End of status report

==== Log checksum BE331C2D80F5486016755681EDEB2D1FCC4B991A8EAB7ED4C28E61727A32F2A4 ====

[CUETools log; Date: 26.10.2020 15:44:22; Version: 2.1.4]
[CTDB TOCID: vPYRTGknK7YKIPr1FVT53_3RZLA-] found.
Track | CTDB Status
1 | (18/18) Accurately ripped
2 | (18/18) Accurately ripped
3 | (18/18) Accurately ripped
4 | (18/18) Accurately ripped
5 | (18/18) Accurately ripped
[AccurateRip ID: 000f0892-00442079-420ecf05] found.
Track [ CRC | V2 ] Status
01 [f3bbd410|e0e680a5] (05+05/10) Accurately ripped
02 [ea1e8940|36fcbed1] (05+05/10) Accurately ripped
03 [066cf51f|cb75b870] (05+04/09) Accurately ripped
04 [3b3706fb|221109df] (05+05/10) Accurately ripped
05 [27b2111c|34ffffc4] (05+05/10) Accurately ripped

Track Peak [ CRC32 ] [W/O NULL] [ LOG ]
– 96,5 [44BB47B2] [207EDF4D] CRC32
01 96,5 [7F969FF3] [21FCFD92]
02 96,4 [3E747F76] [29BF0DDD]
03 96,5 [BAE325BA] [CCDCFE3C]
04 96,5 [F78848C5] [BE62456F]
05 96,5 [1183A1E3] [8ED4B09C]

Exact Audio Copy V1.0 beta 1 from 15. November 2010

EAC extraction logfile from 2. April 2011, 4:15

Circle / Miljard CD2

Used drive : HL-DT-STDVDRAM GH22NS50 Adapter: 3 ID: 0

Read mode : Secure
Utilize accurate stream : Yes
Defeat audio cache : Yes
Make use of C2 pointers : No

Read offset correction : 667
Overread into Lead-In and Lead-Out : No
Fill up missing offset samples with silence : Yes
Delete leading and trailing silent blocks : No
Null samples used in CRC calculations : Yes
Used interface : Installed external ASPI interface

Used output format : Benutzerdefinierter Komprimierer
Selected bitrate : 1024 kBit/s
Quality : High
Add ID3 tag : No
Command line compressor : C:\Program Files (x86)\wavpack\wavpack.exe
Additional command line options : -hm -w "Year=%y" -w "Genre=%m" %s %d


TOC of the extracted CD

Track | Start | Length | Start sector | End sector
––––––––––––––––––––––––––––-
1 | 0:00.00 | 13:08.62 | 0 | 59161
2 | 13:08.62 | 4:49.29 | 59162 | 80865
3 | 17:58.16 | 7:47.59 | 80866 | 115949
4 | 25:46.00 | 3:36.48 | 115950 | 132197
5 | 29:22.48 | 22:35.27 | 132198 | 233849


Range status and errors

Selected range

Filename M:\C\Circle\Miljard\LossLess\Circle - Miljard CD2.wav

Peak level 96.5 %
Extraction speed 0.7 X
Range quality 100.0 %
Test CRC D05ABD3B
Copy CRC D05ABD3B
Copy OK

No errors occurred


AccurateRip summary

Track 1 accurately ripped (confidence 5) [566FB0CB]
Track 2 accurately ripped (confidence 5) [1F055D73]
Track 3 accurately ripped (confidence 5) [0E84A6DE]
Track 4 accurately ripped (confidence 5) [34503645]
Track 5 accurately ripped (confidence 5) [108CBCC9]

All tracks accurately ripped

End of status report

==== Log checksum 8B6289079B24F4A52714BE76B9BED942EBA19349B0EEDB99DFD1B36D2395B865 ====

[CUETools log; Date: 26.10.2020 15:45:11; Version: 2.1.4]
[CTDB TOCID: LGreGLFCsUEecMJzE6ePeOUg8Vo-] found.
Track | CTDB Status
1 | (17/17) Accurately ripped
2 | (17/17) Accurately ripped
3 | (17/17) Accurately ripped
4 | (17/17) Accurately ripped
5 | (17/17) Accurately ripped
[AccurateRip ID: 00097dca-002c146d-3f0c2e05] found.
Track [ CRC | V2 ] Status
01 [566fb0cb|c5cd0f8b] (05+05/10) Accurately ripped
02 [1f055d73|7bad0ba0] (05+05/10) Accurately ripped
03 [0e84a6de|1c58c145] (05+05/10) Accurately ripped
04 [34503645|5f0eebc5] (05+05/10) Accurately ripped
05 [108cbcc9|712556c6] (05+05/10) Accurately ripped

Track Peak [ CRC32 ] [W/O NULL] [ LOG ]
– 96,5 [D05ABD3B] [C2D547F3] CRC32
01 96,5 [98CC1C50] [82F063E5]
02 96,4 [8BBD5101] [AC76CC38]
03 96,5 [1F786C86] [0D7D572F]
04 96,5 [EE8FCC8A] [DA5A2D0A]
05 96,5 [2F87F484] [EE646F84]

Thanks to Antikalk

See also:
Circle - Terminal (2017)