Tags
Language
Tags
November 2022
Su Mo Tu We Th Fr Sa
30 31 1 2 3 4 5
6 7 8 9 10 11 12
13 14 15 16 17 18 19
20 21 22 23 24 25 26
27 28 29 30 1 2 3

Claire Hamill - October (1973) Remastered Reissue 2008

Posted By: Designol
Claire Hamill - October (1973) Remastered Reissue 2008

Claire Hamill - October (1973) Remastered Reissue 2008
EAC | FLAC | Image (Cue&Log) ~ 206 Mb | Mp3 (CBR320) ~ 95 Mb | Scans included
Psychedelic Folk, Folk Rock | Label: Esoteric Recordings | # ECLEC2032 | Time: 00:34:36

2008 digitally remastered and expanded edition of Claire's 1973 sophomore album, a masterpiece of Folk Rock and the art of songwriting featuring music of both innocence and maturity. Produced by Paul Samwell Smith (who had recently worked with Cat Stevens), October is a highlight of Claire's early career and is certain to appeal to those who appreciate the art of the singer/songwriter. The possessor of one of the finest voices in popular music, Claire Hamill signed to Island records at the age of 16, recording two albums which featured contributions from John Martyn, Free and Terry Reid. With her songs covered by Eva Cassidy and cited by Kate Bush as an influence, this reissue is the first part of a program that sees the reissuing of Claire's work by Esoteric Recordings.

It's not really right to describe a performer being like another performer, since of course each is unique, but sometimes one has to use a kind of shorthand to get an idea across. October was Claire's second album, in 1973. I have to admit I bought the album because I was intrigued by the pretty young woman on the cover gazing moodily out a rain-spattered window in a photo tinted a dark red; who was pictured on the back cover kicking up her heels in joy on a sunny autumn day.

I was rewarded with a really good album of many moods, with songs of a self-confessional nature about love and relationships ( that's where Joni Mitchell comes in ).Claire's moods ranged from the dissappointed, haltingly soft voice of Crying Under the Bedclothes; to the piercing soprano of the accusational Speedbreaker; to the silly playfulness of Sydney Gorgeous. The music is melodic and usually accompanied by acoustic instruments, so it has a sound closest to folk music on most but not all tracks. And there are a good number of memorable tracks.

I wish Clair had been better known over here in the U.S. I'm sure she would have found an audience if she'd gotten some radio airplay. She went on to become a member of the guitar based group Wishbone Ash, and has continued to be a well-known singer in Britain even now.

Review by johnf, Amazon.com

Claire Hamill - October (1973) Remastered Reissue 2008



Tracklist:

01. Island (03:21)
02. To The Stars (02:03)
03. Please Stay Tonight (03:02)
04. Wall To Wall Carpeting (02:22)
05. Sppedbreaker (03:12)
06. I Don't Get Any Older (02:32)
07. Warrior Of The Water (02:56)
08. The Artist (02:39)
09. Baby What's Wrong (With You) (04:30)
10. Sidney Gorgeous (01:56)
11. Crying Under The Bedclothes (03:37)
12. Peaceful (02:19)


Exact Audio Copy V0.99 prebeta 1 from 25. May 2007

Отчёт EAC об извлечении, выполненном 21. октября 2009, 21:38

Claire Hamill / October

Дисковод: PIONEER DVD-RW DVR-212D Adapter: 1 ID: 1

Режим чтения : Достоверность
Использование точного потока : Да
Отключение кэша аудио : Да
Использование указателей C2 : Нет

Коррекция смещения при чтении : 48
Способность читать области Lead-in и Lead-out : Нет
Заполнение пропущенных сэмплов тишиной : Да
Удаление блоков с тишиной в начале и конце : Нет
Интерфейс : Установленный внешний ASPI-интерфейс

Выходной формат : Пользовательский кодировщик
Выбранный битрейт : 768 kBit/s
Качество : Высокий
Добавление ID3-тэга : Нет
Утилита сжатия : C:\Program Files\Exact Audio Copy\FLAC\FLAC.EXE
Дополнительные параметры : -6 -V -T "ARTIST=%a" -T "TITLE=%t" -T "ALBUM=%g" -T "DATE=%y" -T "TRACKNUMBER=%n" -T "GENRE=%m" -T "COMMENT=%e" %s -o %d


TOC извлечённого CD

Трек | Старт | Длительность | Начальный сектор | Конечный сектор
––––––––––––––––––––––––––––––––––-
1 | 0:00.00 | 3:21.61 | 0 | 15135
2 | 3:21.61 | 2:03.54 | 15136 | 24414
3 | 5:25.40 | 3:02.18 | 24415 | 38082
4 | 8:27.58 | 2:22.66 | 38083 | 48798
5 | 10:50.49 | 3:12.60 | 48799 | 63258
6 | 14:03.34 | 2:32.44 | 63259 | 74702
7 | 16:36.03 | 2:56.21 | 74703 | 87923
8 | 19:32.24 | 2:39.65 | 87924 | 99913
9 | 22:12.14 | 4:30.62 | 99914 | 120225
10 | 26:43.01 | 1:56.22 | 120226 | 128947
11 | 28:39.23 | 3:37.64 | 128948 | 145286
12 | 32:17.12 | 2:19.41 | 145287 | 155752


Характеристики диапазона извлечения и сообщения об ошибках

Выбранный диапазон

Имя файла E:\TORRENT\Claire Hamill (1971+1973)\1973 - October\Claire Hamill - October.wav

Пиковый уровень 98.8 %
Качество диапазона 100.0 %
CRC теста D27D9062
CRC копии D27D9062
Копирование… OK


AccurateRip: сводка

Трек 1 нет в базе данных
Трек 2 нет в базе данных
Трек 3 нет в базе данных
Трек 4 нет в базе данных
Трек 5 нет в базе данных
Трек 6 нет в базе данных
Трек 7 нет в базе данных
Трек 8 нет в базе данных
Трек 9 нет в базе данных
Трек 10 нет в базе данных
Трек 11 нет в базе данных
Трек 12 нет в базе данных

Ошибок не произошло

Конец отчёта

[CUETools log; Date: 20.05.2016 16:01:29; Version: 2.1.4]
[CTDB TOCID: elRHOodS2ADG2gPgRK7NRfQY_Qc-] found.
Track | CTDB Status
1 | (2/2) Accurately ripped
2 | (2/2) Accurately ripped
3 | (2/2) Accurately ripped
4 | (2/2) Accurately ripped
5 | (2/2) Accurately ripped
6 | (2/2) Accurately ripped
7 | (2/2) Accurately ripped
8 | (2/2) Accurately ripped
9 | (2/2) Accurately ripped
10 | (2/2) Accurately ripped
11 | (2/2) Accurately ripped
12 | (2/2) Accurately ripped
[AccurateRip ID: 000f4bcf-008f56c3-9e081c0c] found.
Track [ CRC | V2 ] Status
01 [398e1820|e150e480] (0+4/4) Accurately ripped
02 [43ca5dd4|6b53542b] (0+4/4) Accurately ripped
03 [5c6ff047|2c6eafb7] (0+4/4) Accurately ripped
04 [abc39b06|aff42d24] (0+4/4) Accurately ripped
05 [4cb9a23e|33617518] (0+4/4) Accurately ripped
06 [7989de78|2cf00d52] (0+4/4) Accurately ripped
07 [4ff49555|a0d48f2d] (0+4/4) Accurately ripped
08 [b0314eed|23853827] (0+4/4) Accurately ripped
09 [50348f63|c4c32d96] (0+4/4) Accurately ripped
10 [ba7b38d3|171cf088] (0+4/4) Accurately ripped
11 [d5935546|83569070] (0+4/4) Accurately ripped
12 [d0598ee8|d020ba3a] (0+4/4) Accurately ripped

Track Peak [ CRC32 ] [W/O NULL] [ LOG ]
– 98,8 [CE3EE522] [D27D9062] W/O NULL
01 98,8 [C91D40AA] [B0BC361C]
02 98,8 [7EC837A3] [D546E56F]
03 98,8 [6FA066F8] [686DE3D2]
04 98,8 [98B2341B] [8CA3D972]
05 98,8 [12F53CD5] [26676CA5]
06 98,8 [14652F3B] [EC9A988D]
07 98,8 [1099DE81] [23CA695C]
08 89,4 [7945AF2C] [856D3147]
09 98,8 [79767C93] [B5CDE1B1]
10 98,8 [DFEE9942] [213E7353]
11 98,8 [DF81BBFB] [4E5635B3]
12 98,8 [D8A54E01] [6BA25D70]

foobar2000 1.2 / Dynamic Range Meter 1.1.1
log date: 2016-05-21 14:24:52

––––––––––––––––––––––––––––––––––––––––
Analyzed: Claire Hamill / October
––––––––––––––––––––––––––––––––––––––––

DR Peak RMS Duration Track
––––––––––––––––––––––––––––––––––––––––
DR11 -0.10 dB -15.70 dB 3:22 01-Island
DR11 -0.10 dB -14.23 dB 2:04 02-To The Stars
DR10 -0.10 dB -14.62 dB 3:02 03-Please Stay Tonight
DR11 -0.10 dB -15.95 dB 2:23 04-Wall To Wall Carpeting
DR6 -0.10 dB -9.74 dB 3:13 05-Sppedbreaker
DR13 -0.10 dB -18.29 dB 2:33 06-I Don't Get Any Older
DR10 -0.10 dB -15.14 dB 2:56 07-Warrior Of The Water
DR11 -0.97 dB -17.46 dB 2:40 08-The Artist
DR10 -0.10 dB -12.64 dB 4:31 09-Baby What's Wrong (With You)
DR9 -0.10 dB -13.65 dB 1:56 10-Sidney Gorgeous
DR10 -0.10 dB -14.02 dB 3:38 11-Crying Under The Bedclothes
DR12 -0.10 dB -17.56 dB 2:20 12-Peaceful
––––––––––––––––––––––––––––––––––––––––

Number of tracks: 12
Official DR value: DR10

Samplerate: 44100 Hz
Channels: 2
Bits per sample: 16
Bitrate: 768 kbps
Codec: FLAC
================================================================================

Claire Hamill - October (1973) Remastered Reissue 2008

Claire Hamill - October (1973) Remastered Reissue 2008

All thanks to original releaser - Fragile59

More interesting music in My Blog