Tags
Language
Tags

Claire Martin - A Modern Art (2009)

Posted By: tirexiss
Claire Martin - A Modern Art (2009)

Claire Martin - A Modern Art (2009)
XLD | FLAC (image+.cue, log) | Covers Included | 52:46 | 355 MB
Genre: Vocal Jazz | Label: Linn Records | Catalog: AKD 340

Britain's leading female jazz singer Claire Martin returns with her new album A Modern Art. The album is a personal reflection of what it takes to be a musician in the 21st century and features two brand new self-penned tracks.
The original and contemporary songs on A Modern Art are presented with a cool-edge, tinged with a touch of irony and razor-sharp wit. A Modern Art is inspired by the tragic death of pioneering jazz musician Esbjörn Svensson, who Claire pays tribute to with a heartfelt rendition of 'Love Is Real'.
A Modern Art features songs by the 21st century's finest writers; Michael Franks, Donald Fagen, Cy Coleman, Rogers & Hart and Rebekka Bakken. Mark Winkler has contributed lyrics to a great Joshua Redman melody on the track 'lowercase' and 'As We Live and Breathe' is by the New York Voices' vocalist Lauren Kinhan.
Claire Martin successfully creates 'new' jazz classics as she tackles the thorny subject of jazz as a contemporary art form – one routed in tradition but as relevant and vibrant as ever.

Claire Martin - A Modern Art (2009)

Track List:

01. Everything I've Got Belongs to You (3:36)
02. So Twentieth Century (3:19)
03. Love is Real (3:40)
04. Lowercase (4:33)
05. A Modern Art (3:11)
06. Edge Ways (3:36)
07. Love of Another (3:09)
08. Totally (4:58)
09. Everybody Today is Turning On (3:31)
10. Sunday Morning Here With You (4:16)
11. Promises (3:25)
12. Things I Miss The Most (4:28)
13. As We Live and Breathe (3:34)
14. Nirvana (3:32)

X Lossless Decoder version 20090320 (105.1)

XLD extraction logfile from 2009-08-20 12:40:55 +1000

Claire Martin / A Modern Art

Used drive : MATSHITA DVD-R UJ-868 (revision KB19)

Use cdparanoia mode : YES (CDParanoia III 10.2 engine)
Disable audio cache : OK for the drive with cache less than 2750KB
Make use of C2 pointers : NO
Read offset correction : 102
Max retry count : 100

TOC of the extracted CD
Track | Start | Length | Start sector | End sector
––––––––––––––––––––––––––––-
1 | 00:00:00 | 03:36:31 | 0 | 16230
2 | 03:36:31 | 03:19:04 | 16231 | 31159
3 | 06:55:35 | 03:39:40 | 31160 | 47624
4 | 10:35:00 | 04:32:71 | 47625 | 68095
5 | 15:07:71 | 03:11:28 | 68096 | 82448
6 | 18:19:24 | 03:35:45 | 82449 | 98618
7 | 21:54:69 | 03:08:52 | 98619 | 112770
8 | 25:03:46 | 04:57:61 | 112771 | 135106
9 | 30:01:32 | 03:30:61 | 135107 | 150917
10 | 33:32:18 | 04:15:60 | 150918 | 170102
11 | 37:48:03 | 03:25:07 | 170103 | 185484
12 | 41:13:10 | 04:28:16 | 185485 | 205600
13 | 45:41:26 | 03:33:38 | 205601 | 221613
14 | 49:14:64 | 03:31:53 | 221614 | 237491

Track 01
Filename : /Users/Jesse/Desktop/Claire Martin - A Modern Art/01 Claire Martin - Everything I've Got Belongs to You.flac
/Users/Jesse/Desktop/Claire Martin - A Modern Art/01 Claire Martin - Everything I've Got Belongs to You.mp3
CRC32 hash (test run) : 1B58302F
CRC32 hash : 1B58302F
CRC32 hash (skip zero) : 214D0057
AccurateRip signature : 96D20EE8
->Track not present in AccurateRip database.
Statistics
Read error : 0
Skipped (treated as error) : 0
Edge jitter error (maybe fixed) : 0
Atom jitter error (maybe fixed) : 0
Drift error (maybe fixed) : 0
Dropped bytes error (maybe fixed) : 0
Duplicated bytes error (maybe fixed) : 0
Inconsistency in error sectors : 0

Track 02
Filename : /Users/Jesse/Desktop/Claire Martin - A Modern Art/02 Claire Martin - So Twentieth Century.flac
/Users/Jesse/Desktop/Claire Martin - A Modern Art/02 Claire Martin - So Twentieth Century.mp3
CRC32 hash (test run) : 6E282FA5
CRC32 hash : 6E282FA5
CRC32 hash (skip zero) : 584D309B
AccurateRip signature : 1E748996
->Track not present in AccurateRip database.
Statistics
Read error : 0
Skipped (treated as error) : 0
Edge jitter error (maybe fixed) : 0
Atom jitter error (maybe fixed) : 0
Drift error (maybe fixed) : 0
Dropped bytes error (maybe fixed) : 0
Duplicated bytes error (maybe fixed) : 0
Inconsistency in error sectors : 0

Track 03
Filename : /Users/Jesse/Desktop/Claire Martin - A Modern Art/03 Claire Martin - Love is Real.flac
/Users/Jesse/Desktop/Claire Martin - A Modern Art/03 Claire Martin - Love is Real.mp3
CRC32 hash (test run) : 4287885C
CRC32 hash : 4287885C
CRC32 hash (skip zero) : F9927EAD
AccurateRip signature : 44BD82A1
->Track not present in AccurateRip database.
Statistics
Read error : 0
Skipped (treated as error) : 0
Edge jitter error (maybe fixed) : 0
Atom jitter error (maybe fixed) : 0
Drift error (maybe fixed) : 0
Dropped bytes error (maybe fixed) : 0
Duplicated bytes error (maybe fixed) : 0
Inconsistency in error sectors : 0

Track 04
Filename : /Users/Jesse/Desktop/Claire Martin - A Modern Art/04 Claire Martin - lowercase.flac
/Users/Jesse/Desktop/Claire Martin - A Modern Art/04 Claire Martin - lowercase.mp3
CRC32 hash (test run) : F04B9D3A
CRC32 hash : F04B9D3A
CRC32 hash (skip zero) : C7C0A914
AccurateRip signature : 8A129A74
->Track not present in AccurateRip database.
Statistics
Read error : 0
Skipped (treated as error) : 0
Edge jitter error (maybe fixed) : 0
Atom jitter error (maybe fixed) : 0
Drift error (maybe fixed) : 0
Dropped bytes error (maybe fixed) : 0
Duplicated bytes error (maybe fixed) : 0
Inconsistency in error sectors : 0

Track 05
Filename : /Users/Jesse/Desktop/Claire Martin - A Modern Art/05 Claire Martin - A Modern Art.flac
/Users/Jesse/Desktop/Claire Martin - A Modern Art/05 Claire Martin - A Modern Art.mp3
CRC32 hash (test run) : A5A71563
CRC32 hash : A5A71563
CRC32 hash (skip zero) : CB60BEDD
AccurateRip signature : 48D1CF1A
->Track not present in AccurateRip database.
Statistics
Read error : 0
Skipped (treated as error) : 0
Edge jitter error (maybe fixed) : 0
Atom jitter error (maybe fixed) : 0
Drift error (maybe fixed) : 0
Dropped bytes error (maybe fixed) : 0
Duplicated bytes error (maybe fixed) : 0
Inconsistency in error sectors : 0

Track 06
Filename : /Users/Jesse/Desktop/Claire Martin - A Modern Art/06 Claire Martin - Edge Ways.flac
/Users/Jesse/Desktop/Claire Martin - A Modern Art/06 Claire Martin - Edge Ways.mp3
CRC32 hash (test run) : 70E45F61
CRC32 hash : 70E45F61
CRC32 hash (skip zero) : 44F141B5
AccurateRip signature : 179D6FF6
->Track not present in AccurateRip database.
Statistics
Read error : 0
Skipped (treated as error) : 0
Edge jitter error (maybe fixed) : 0
Atom jitter error (maybe fixed) : 0
Drift error (maybe fixed) : 0
Dropped bytes error (maybe fixed) : 0
Duplicated bytes error (maybe fixed) : 0
Inconsistency in error sectors : 0

Track 07
Filename : /Users/Jesse/Desktop/Claire Martin - A Modern Art/07 Claire Martin - Love of Another.flac
/Users/Jesse/Desktop/Claire Martin - A Modern Art/07 Claire Martin - Love of Another.mp3
CRC32 hash (test run) : C8824EBB
CRC32 hash : C8824EBB
CRC32 hash (skip zero) : D2AA6A2B
AccurateRip signature : F76B2A1E
->Track not present in AccurateRip database.
Statistics
Read error : 0
Skipped (treated as error) : 0
Edge jitter error (maybe fixed) : 0
Atom jitter error (maybe fixed) : 0
Drift error (maybe fixed) : 0
Dropped bytes error (maybe fixed) : 0
Duplicated bytes error (maybe fixed) : 0
Inconsistency in error sectors : 0

Track 08
Filename : /Users/Jesse/Desktop/Claire Martin - A Modern Art/08 Claire Martin - Totally.flac
/Users/Jesse/Desktop/Claire Martin - A Modern Art/08 Claire Martin - Totally.mp3
CRC32 hash (test run) : E1F66E93
CRC32 hash : E1F66E93
CRC32 hash (skip zero) : 77F0D558
AccurateRip signature : 9B86984E
->Track not present in AccurateRip database.
Statistics
Read error : 0
Skipped (treated as error) : 0
Edge jitter error (maybe fixed) : 0
Atom jitter error (maybe fixed) : 0
Drift error (maybe fixed) : 0
Dropped bytes error (maybe fixed) : 0
Duplicated bytes error (maybe fixed) : 0
Inconsistency in error sectors : 0

Track 09
Filename : /Users/Jesse/Desktop/Claire Martin - A Modern Art/09 Claire Martin - Everybody Today is Turning On.flac
/Users/Jesse/Desktop/Claire Martin - A Modern Art/09 Claire Martin - Everybody Today is Turning On.mp3
CRC32 hash (test run) : 4D7DCAE5
CRC32 hash : 4D7DCAE5
CRC32 hash (skip zero) : 8CBAC4EE
AccurateRip signature : 961EE06A
->Track not present in AccurateRip database.
Statistics
Read error : 0
Skipped (treated as error) : 0
Edge jitter error (maybe fixed) : 0
Atom jitter error (maybe fixed) : 0
Drift error (maybe fixed) : 0
Dropped bytes error (maybe fixed) : 0
Duplicated bytes error (maybe fixed) : 0
Inconsistency in error sectors : 0

Track 10
Filename : /Users/Jesse/Desktop/Claire Martin - A Modern Art/10 Claire Martin - Sunday Morning Here With You.flac
/Users/Jesse/Desktop/Claire Martin - A Modern Art/10 Claire Martin - Sunday Morning Here With You.mp3
CRC32 hash (test run) : A8AE9537
CRC32 hash : A8AE9537
CRC32 hash (skip zero) : D6233BF7
AccurateRip signature : AA3B1624
->Track not present in AccurateRip database.
Statistics
Read error : 0
Skipped (treated as error) : 0
Edge jitter error (maybe fixed) : 0
Atom jitter error (maybe fixed) : 0
Drift error (maybe fixed) : 0
Dropped bytes error (maybe fixed) : 0
Duplicated bytes error (maybe fixed) : 0
Inconsistency in error sectors : 0

Track 11
Filename : /Users/Jesse/Desktop/Claire Martin - A Modern Art/11 Claire Martin - Promises.flac
/Users/Jesse/Desktop/Claire Martin - A Modern Art/11 Claire Martin - Promises.mp3
CRC32 hash (test run) : 7CCCFDC1
CRC32 hash : 7CCCFDC1
CRC32 hash (skip zero) : 6D7E16DA
AccurateRip signature : DD8E2A67
->Track not present in AccurateRip database.
Statistics
Read error : 0
Skipped (treated as error) : 0
Edge jitter error (maybe fixed) : 0
Atom jitter error (maybe fixed) : 0
Drift error (maybe fixed) : 0
Dropped bytes error (maybe fixed) : 0
Duplicated bytes error (maybe fixed) : 0
Inconsistency in error sectors : 0

Track 12
Filename : /Users/Jesse/Desktop/Claire Martin - A Modern Art/12 Claire Martin - Things I Miss The Most.flac
/Users/Jesse/Desktop/Claire Martin - A Modern Art/12 Claire Martin - Things I Miss The Most.mp3
CRC32 hash (test run) : B593AFF0
CRC32 hash : B593AFF0
CRC32 hash (skip zero) : 37AC8ACE
AccurateRip signature : B2B09E91
->Track not present in AccurateRip database.
Statistics
Read error : 0
Skipped (treated as error) : 0
Edge jitter error (maybe fixed) : 0
Atom jitter error (maybe fixed) : 0
Drift error (maybe fixed) : 0
Dropped bytes error (maybe fixed) : 0
Duplicated bytes error (maybe fixed) : 0
Inconsistency in error sectors : 0

Track 13
Filename : /Users/Jesse/Desktop/Claire Martin - A Modern Art/13 Claire Martin - As We Live and Breathe.flac
/Users/Jesse/Desktop/Claire Martin - A Modern Art/13 Claire Martin - As We Live and Breathe.mp3
CRC32 hash (test run) : ED39479D
CRC32 hash : ED39479D
CRC32 hash (skip zero) : 38960230
AccurateRip signature : 3BD4D63F
->Track not present in AccurateRip database.
Statistics
Read error : 0
Skipped (treated as error) : 0
Edge jitter error (maybe fixed) : 0
Atom jitter error (maybe fixed) : 0
Drift error (maybe fixed) : 0
Dropped bytes error (maybe fixed) : 0
Duplicated bytes error (maybe fixed) : 0
Inconsistency in error sectors : 0

Track 14
Filename : /Users/Jesse/Desktop/Claire Martin - A Modern Art/14 Claire Martin - Nirvana.flac
/Users/Jesse/Desktop/Claire Martin - A Modern Art/14 Claire Martin - Nirvana.mp3
CRC32 hash (test run) : A7369A15
CRC32 hash : A7369A15
CRC32 hash (skip zero) : 1A0AA3A0
AccurateRip signature : 8CF259D3
->Track not present in AccurateRip database.
Statistics
Read error : 0
Skipped (treated as error) : 0
Edge jitter error (maybe fixed) : 0
Atom jitter error (maybe fixed) : 0
Drift error (maybe fixed) : 0
Dropped bytes error (maybe fixed) : 0
Duplicated bytes error (maybe fixed) : 0
Inconsistency in error sectors : 0

No errors occurred

End of status report

Thanks to the Original ripper (unknown)!

Download: