Tags
Language
Tags

Claudio Arrau - Chopin: Nocturnes (2002)

Posted By: tirexiss
Claudio Arrau - Chopin: Nocturnes (2002)

Claudio Arrau - Chopin: Nocturnes (2002)
EAC | FLAC (image+.cue, log) | Covers Included | 02:01:51 | 505 MB
Genre: Classical | Label: Philips | Catalog: 416 440-2

Anyone who thinks that Chopin's nocturnes are not "technically" demanding has obviously never spent time studying them. They are quintessential Chopin and demand infinite attention to matters of touch, pedalling, and tone production from start to finish A hasty or shallow performance, such as might work with the Fantaisie-Imromptu, for instance, will not suffice here. To play them well is no small task and requires a great deal of emotional investment tempered by a controlled technique; fortunately Arrau is up to the challenge, as this recording attests.

Claudio Arrau - Chopin: Nocturnes (2002)

Track List:

Fryderyk Chopin (1810-1849)

CD 1:
01. No. 1 in B-flat Minor, Op. 9/1 [0:05:49.00]
02. No. 2 in E-flat Major, Op. 9/2 [0:04:49.00]
03. No. 3 in B Major, Op. 9/3 [0:07:18.00]
04. No. 4 in F Major, Op. 15/1 [0:05:07.00]
05. No. 5 in F-sharp Major, Op. 15/2 [0:03:49.00]
06. No. 6 in G Minor, Op. 15/3 [0:04:44.00]
07. No. 7 in C-sharp Minor, Op. 27/1 [0:05:28.00]
08. No. 8 in D-flat Major, Op. 27/2 [0:06:21.00]
09. No. 9 in B Major, Op. 32/1 [0:05:43.00]
10. No. 10 in A-flat Major, Op. 32/2 [0:05:21.00]
11. No. 11 in G minor, Op. 37/1 [0:07:16.00]

CD 2:
01. No. 12 in G Major, Op. 37/2 [0:07:07.00]
02. No. 13 in C Minor, Op. 48/1 [0:06:22.00]
03. No. 14 in F Sharp Major, Op. 48/2 [0:07:52.00]
04. No. 15 in F-minor, Op. 55/1 [0:05:45.00]
05. No. 16 in E-flat Majoe, Op. 62/1 [0:05:33.00]
06. No. 17 in B major, Op. 62/1 [0:07:45.00]
07. No. 18 in E Major, Op. 62/2 [0:07:13.00]
08. No. 19 in E Minor, Op. 72/1 [0:04:17.00]
09. No. 20 in C-sharp Minor, Op. Posth. [0:04:30.00]
10. No. 21 in C Minor, Op. posth [0:03:42.00]

Performers:
Claudio Arrau – piano

Exact Audio Copy V1.0 beta 3 from 29. August 2011

EAC extraction logfile from 16. July 2012, 10:13

Claudio Arrau / Chopin - Nocturnes - Arrau (Disc 1)

Used drive : HL-DT-STDVDRAM GSA-H10A Adapter: 0 ID: 0

Read mode : Secure
Utilize accurate stream : Yes
Defeat audio cache : Yes
Make use of C2 pointers : No

Read offset correction : 667
Overread into Lead-In and Lead-Out : No
Fill up missing offset samples with silence : Yes
Delete leading and trailing silent blocks : No
Null samples used in CRC calculations : Yes
Used interface : Native Win32 interface for Win NT & 2000

Used output format : User Defined Encoder
Selected bitrate : 1024 kBit/s
Quality : High
Add ID3 tag : No
Command line compressor : C:\Program Files\Exact Audio Copy\Flac\flac.exe
Additional command line options : -8 -V -T "TITLE=%title%" -T "ARTIST=%artist%" -T "ALBUMARTIST=%albumartist%" -T "ALBUM=%albumtitle%" -T "DATE=%year%" -T "TRACKNUMBER=%tracknr%" -T "TRACKTOTAL=%numtracks%" -T "GENRE=%genre%" -T "COMMENT=%comment%" -T "PERFORMER=%albuminterpret%" -T "COMPOSER=%composer%" %source% -o %dest%


TOC of the extracted CD

Track | Start | Length | Start sector | End sector
––––––––––––––––––––––––––––-
1 | 0:00.33 | 5:49.00 | 33 | 26207
2 | 5:49.33 | 4:49.00 | 26208 | 47882
3 | 10:38.33 | 7:18.00 | 47883 | 80732
4 | 17:56.33 | 5:07.00 | 80733 | 103757
5 | 23:03.33 | 3:49.00 | 103758 | 120932
6 | 26:52.33 | 4:44.00 | 120933 | 142232
7 | 31:36.33 | 5:28.00 | 142233 | 166832
8 | 37:04.33 | 6:21.00 | 166833 | 195407
9 | 43:25.33 | 5:43.00 | 195408 | 221132
10 | 49:08.33 | 5:21.00 | 221133 | 245207
11 | 54:29.33 | 7:16.00 | 245208 | 277907


Range status and errors

Selected range

Filename F:\Ripped general\[0939] Chopin - Nocturnes - Arrau\cd1\Chopin - Nocturnes - Arrau (Disc 1).wav

Peak level 99.8 %
Extraction speed 7.4 X
Range quality 100.0 %
Test CRC ECFABA46
Copy CRC ECFABA46
Copy OK

No errors occurred


AccurateRip summary

Track 1 accurately ripped (confidence 5) [CAD9B467] (AR v2)
Track 2 accurately ripped (confidence 5) [4460A6EE] (AR v2)
Track 3 accurately ripped (confidence 5) [091DB77A] (AR v2)
Track 4 accurately ripped (confidence 5) [E134B70B] (AR v2)
Track 5 accurately ripped (confidence 5) [C50FC2ED] (AR v2)
Track 6 accurately ripped (confidence 5) [CEE0EA0E] (AR v2)
Track 7 accurately ripped (confidence 5) [DECDB435] (AR v2)
Track 8 accurately ripped (confidence 5) [9EF657C6] (AR v2)
Track 9 accurately ripped (confidence 5) [D7D77478] (AR v2)
Track 10 accurately ripped (confidence 5) [7009A87A] (AR v2)
Track 11 accurately ripped (confidence 5) [9FA92609] (AR v2)

All tracks accurately ripped

End of status report

Exact Audio Copy V1.0 beta 3 from 29. August 2011

EAC extraction logfile from 16. July 2012, 11:33

Claudio Arrau / Chopin - Nocturnes - Arrau (Disc 2)

Used drive : HL-DT-STDVDRAM GSA-H10A Adapter: 0 ID: 0

Read mode : Secure
Utilize accurate stream : Yes
Defeat audio cache : Yes
Make use of C2 pointers : No

Read offset correction : 667
Overread into Lead-In and Lead-Out : No
Fill up missing offset samples with silence : Yes
Delete leading and trailing silent blocks : No
Null samples used in CRC calculations : Yes
Used interface : Native Win32 interface for Win NT & 2000

Used output format : User Defined Encoder
Selected bitrate : 1024 kBit/s
Quality : High
Add ID3 tag : No
Command line compressor : C:\Program Files\Exact Audio Copy\Flac\flac.exe
Additional command line options : -8 -V -T "TITLE=%title%" -T "ARTIST=%artist%" -T "ALBUMARTIST=%albumartist%" -T "ALBUM=%albumtitle%" -T "DATE=%year%" -T "TRACKNUMBER=%tracknr%" -T "TRACKTOTAL=%numtracks%" -T "GENRE=%genre%" -T "COMMENT=%comment%" -T "PERFORMER=%albuminterpret%" -T "COMPOSER=%composer%" %source% -o %dest%


TOC of the extracted CD

Track | Start | Length | Start sector | End sector
––––––––––––––––––––––––––––-
1 | 0:00.33 | 7:07.00 | 33 | 32057
2 | 7:07.33 | 6:22.00 | 32058 | 60707
3 | 13:29.33 | 7:52.00 | 60708 | 96107
4 | 21:21.33 | 5:45.00 | 96108 | 121982
5 | 27:06.33 | 5:33.00 | 121983 | 146957
6 | 32:39.33 | 7:45.00 | 146958 | 181832
7 | 40:24.33 | 7:13.00 | 181833 | 214307
8 | 47:37.33 | 4:17.00 | 214308 | 233582
9 | 51:54.33 | 4:30.00 | 233583 | 253832
10 | 56:24.33 | 3:42.00 | 253833 | 270482


Range status and errors

Selected range

Filename F:\Ripped general\[0939] Chopin - Nocturnes - Arrau\cd2\Chopin - Nocturnes - Arrau (Disc 2).wav

Peak level 97.8 %
Extraction speed 2.0 X
Range quality 100.0 %
Test CRC D5B78B09
Copy CRC D5B78B09
Copy OK

No errors occurred


AccurateRip summary

Track 1 accurately ripped (confidence 6) [2CF3D6E8] (AR v2)
Track 2 accurately ripped (confidence 6) [F26E9DAC] (AR v2)
Track 3 accurately ripped (confidence 6) [5A8BE681] (AR v2)
Track 4 accurately ripped (confidence 6) [68A08885] (AR v2)
Track 5 accurately ripped (confidence 6) [B32BC31C] (AR v2)
Track 6 accurately ripped (confidence 6) [7231E352] (AR v2)
Track 7 accurately ripped (confidence 6) [61F5393E] (AR v2)
Track 8 accurately ripped (confidence 6) [D4790219] (AR v2)
Track 9 accurately ripped (confidence 6) [8E864CE6] (AR v2)
Track 10 accurately ripped (confidence 6) [41CFBCCE] (AR v2)

All tracks accurately ripped

End of status report

Thanks to the Original ripper (unknown)!

Welcome to my blog!

Download: