Tags
Language
Tags

Claudio Arrau - Chopin: Piano works (6CD) (1991)

Posted By: tirexiss
Claudio Arrau - Chopin: Piano works (6CD) (1991)

Claudio Arrau - Chopin: Piano works (6CD) (1991)
EAC | FLAC (image+.cue, log) | Covers Included | 06:18:55 | 1.42 Gb
Genre: Classical | Label: Philips | Catalog: 432 324-2 / 432 327-2

Claudio Arrau is widely considered by many to be one of the greatest pianists of the 20th century. This collection contains many of Chopin works including the rarely performed pieces for Piano and Orchestra such as Rondo a la krakowiak, Fantasy on Polish Airs and Variations on Mozart's La ci darem la mano. Like most of Arrau's works, the Chopin is played very seriously, at slower tempo, but nevertheless is superb. The Preludes, Nocturnes are recommended the most, but this collection is a must have for any Arrau fan.

Claudio Arrau - Chopin: Piano works (6CD) (1991)

Claudio Arrau - Chopin: Piano works (6CD) (1991)

Track List:

CD1
01. Preludes, op.28: No.1 in C major [0:00:44.42]
02. Preludes, op.28: No.2 in A minor [0:01:49.33]
03. Preludes, op.28: No.3 in G major [0:01:05.17]
04. Preludes, op.28: No.4 in E minor [0:02:00.45]
05. Preludes, op.28: No.5 in D major [0:00:41.13]
06. Preludes, op.28: No.6 in B minor [0:02:20.00]
07. Preludes, op.28: No.7 in A major [0:00:54.00]
08. Preludes, op.28: No.8 in F sharp minor [0:01:59.00]
09. Preludes, op.28: No.9 in E major [0:01:27.00]
10. Preludes, op.28: No.10 in C sharp minor [0:00:34.00]
11. Preludes, op.28: No.11 in B major [0:00:41.25]
12. Preludes, op.28: No.12 in G sharp minor [0:01:08.50]
13. Preludes, op.28: No.13 in F sharp major [0:03:14.00]
14. Preludes, op.28: No.14 in E flat minor [0:00:49.00]
15. Preludes, op.28: No.15 in D flat major [0:05:32.00]
16. Preludes, op.28: No.16 in B flat minor [0:01:10.00]
17. Preludes, op.28: No.17 in A flat major [0:03:27.00]
18. Preludes, op.28: No.18 in F minor [0:01:00.00]
19. Preludes, op.28: No.19 in E flat major [0:01:22.00]
20. Preludes, op.28: No.20 in C minor [0:01:45.35]
21. Preludes, op.28: No.21 in B flat major [0:02:09.40]
22. Preludes, op.28: No.22 in G minor [0:00:54.00]
23. Preludes, op.28: No.23 in F major [0:01:01.37]
24. Preludes, op.28: No.24 in D minor [0:02:27.38]
25. Prelude no.25 in C sharp minor, op.45 [0:05:30.00]
26. Prelude no.26 in A flat major, op.psth. [0:01:07.00]
27. Impromptu no.1 in A flat major, op.29 [0:04:51.00]
28. Impromptu no.2 in F sharp major, op.36 [0:06:11.00]
29. Impromptu no.3 in G flat major, op.51 [0:06:28.00]
30. Impromptu no.4 in C sharp minor, op.66, "Fantaisie-Impromptu" [0:05:44.00]

CD2
01. Grande Valse Brillante No.1 in E Flat Major, Op.18 [0:06:11.00]
02. Valse Brillante No.2 in a Flat Major, Op.34 No.1 [0:06:14.00]
03. Waltz No.3 in a Minor, Op.34 No.2 [0:06:26.00]
04. Valse Brillante No.4 in F Major, Op.34 No.3 [0:02:49.00]
05. Grande Valse No.5 in a Flat Major, Op.42 [0:04:37.00]
06. Waltz No.6 in D Flat Major, Op.64 No.1, "Minute" [0:02:27.00]
07. Waltz No.7 in C Sharp Minor, Op.64 No.2 [0:04:20.00]
08. Waltz No.8 in a Flat Major, Op.64 No.3 [0:04:03.00]
09. Waltz No.9 in a Flat Major, Op.69 No.1, "L'adieu" [0:04:43.00]
10. Waltz No.10 in B Minor, Op.69 No.2 [0:05:04.00]
11. Waltz No.11 in G Flat Major, Op.70 No.1 [0:02:24.00]
12. Waltz No.12 F Minor/ a Flat Major, Op.70 No.2 [0:03:36.00]
13. Waltz No.13 in D Flat Major, Op.70 No.3 [0:03:54.00]
14. Waltz No.14 in E Minor, Op.Psth. [0:03:45.00]
15. Waltz No.16 in a Flat Major, Op.Psth. [0:01:35.00]
16. Waltz No.15 in E Major, Op.Psth. [0:02:37.00]
17. Waltz No.19 in a Minor, Op.Psth. [0:02:31.00]
18. Waltz No.18 in E Flat Major, Op.Psth. [0:01:52.00]
19. Waltz No.17 in E Flat Major, Op.Psth. [0:02:59.00]

CD3
01. Ballade no.1 in G minor, op.23 [0:09:23.00]
02. Ballade no.2 in F major, op.38 [0:08:10.00]
03. Ballade no.3 in A flat major, op.47 [0:07:51.00]
04. Ballade no.4 in F minor, op.52 [0:12:14.00]
05. Barcarolle in F sharp major, op.60 [0:09:45.00]
06. Fantasia in F minor, op.49 [0:12:22.00]

CD4
01. Scherzo no.1 in B minor, op.20 [0:11:24.00]
02. Scherzo no.2 in B flat minor, op.31 [0:10:28.00]
03. Scherzo no.3 in C sharp minor, op.39 [0:08:05.00]
04. Scherzo no.4 in E major, op.54 [0:12:11.00]
05. Polonaise no.7 in A flat major, op.61, "Polonaise-Fantaisie" [0:12:54.00]

CD5
01. No. 1 in B-flat Minor, Op. 9/1 [0:05:49.00]
02. No. 2 in E-flat Major, Op. 9/2 [0:04:49.00]
03. No. 3 in B Major, Op. 9/3 [0:07:18.00]
04. No. 4 in F Major, Op. 15/1 [0:05:07.00]
05. No. 5 in F-sharp Major, Op. 15/2 [0:03:49.00]
06. No. 6 in G Minor, Op. 15/3 [0:04:44.00]
07. No. 7 in C-sharp Minor, Op. 27/1 [0:05:28.00]
08. No. 8 in D-flat Major, Op. 27/2 [0:06:21.00]
09. No. 9 in B Major, Op. 32/1 [0:05:43.00]
10. No. 10 in A-flat Major, Op. 32/2 [0:05:21.00]
11. No. 11 in G minor, Op. 37/1 [0:07:16.00]

CD6
01. No. 12 in G Major, Op. 37/2 [0:07:07.00]
02. No. 13 in C Minor, Op. 48/1 [0:06:22.00]
03. No. 14 in F Sharp Major, Op. 48/2 [0:07:52.00]
04. No. 15 in F-minor, Op. 55/1 [0:05:45.00]
05. No. 16 in E-flat Majoe, Op. 62/1 [0:05:33.00]
06. No. 17 in B major, Op. 62/1 [0:07:45.00]
07. No. 18 in E Major, Op. 62/2 [0:07:13.00]
08. No. 19 in E Minor, Op. 72/1 [0:04:17.00]
09. No. 20 in C-sharp Minor, Op. Posth. [0:04:30.00]
10. No. 21 in C Minor, Op. posth [0:03:42.00]

Performers:
Claudio Arrau - piano

Exact Audio Copy V1.0 beta 3 from 29. August 2011

EAC extraction logfile from 22. October 2012, 20:23

Claudio Arrau / Chopin – Piano works – Arrau [Vol.1] (disc 1)

Used drive : TSSTcorpCDDVDW SH-222BB Adapter: 2 ID: 1

Read mode : Secure
Utilize accurate stream : Yes
Defeat audio cache : Yes
Make use of C2 pointers : No

Read offset correction : 6
Overread into Lead-In and Lead-Out : No
Fill up missing offset samples with silence : Yes
Delete leading and trailing silent blocks : No
Null samples used in CRC calculations : Yes
Used interface : Native Win32 interface for Win NT & 2000

Used output format : User Defined Encoder
Selected bitrate : 1024 kBit/s
Quality : High
Add ID3 tag : No
Command line compressor : C:\Program Files\Exact Audio Copy\Flac\flac.exe
Additional command line options : -8 -V -T "TITLE=%title%" -T "ARTIST=%artist%" -T "ALBUMARTIST=%albumartist%" -T "ALBUM=%albumtitle%" -T "DATE=%year%" -T "TRACKNUMBER=%tracknr%" -T "TRACKTOTAL=%numtracks%" -T "GENRE=%genre%" -T "COMMENT=%comment%" -T "PERFORMER=%albuminterpret%" -T "COMPOSER=%composer%" %source% -o %dest%


TOC of the extracted CD

Track | Start | Length | Start sector | End sector
––––––––––––––––––––––––––––-
1 | 0:00.33 | 0:44.42 | 33 | 3374
2 | 0:45.00 | 1:49.33 | 3375 | 11582
3 | 2:34.33 | 1:05.17 | 11583 | 16474
4 | 3:39.50 | 2:00.45 | 16475 | 25519
5 | 5:40.20 | 0:41.13 | 25520 | 28607
6 | 6:21.33 | 2:20.00 | 28608 | 39107
7 | 8:41.33 | 0:54.00 | 39108 | 43157
8 | 9:35.33 | 1:59.00 | 43158 | 52082
9 | 11:34.33 | 1:27.00 | 52083 | 58607
10 | 13:01.33 | 0:34.00 | 58608 | 61157
11 | 13:35.33 | 0:41.25 | 61158 | 64257
12 | 14:16.58 | 1:08.50 | 64258 | 69407
13 | 15:25.33 | 3:14.00 | 69408 | 83957
14 | 18:39.33 | 0:49.00 | 83958 | 87632
15 | 19:28.33 | 5:32.00 | 87633 | 112532
16 | 25:00.33 | 1:10.00 | 112533 | 117782
17 | 26:10.33 | 3:27.00 | 117783 | 133307
18 | 29:37.33 | 1:00.00 | 133308 | 137807
19 | 30:37.33 | 1:22.00 | 137808 | 143957
20 | 31:59.33 | 1:45.35 | 143958 | 151867
21 | 33:44.68 | 2:09.40 | 151868 | 161582
22 | 35:54.33 | 0:54.00 | 161583 | 165632
23 | 36:48.33 | 1:01.37 | 165633 | 170244
24 | 37:49.70 | 2:27.38 | 170245 | 181307
25 | 40:17.33 | 5:30.00 | 181308 | 206057
26 | 45:47.33 | 1:07.00 | 206058 | 211082
27 | 46:54.33 | 4:51.00 | 211083 | 232907
28 | 51:45.33 | 6:11.00 | 232908 | 260732
29 | 57:56.33 | 6:28.00 | 260733 | 289832
30 | 64:24.33 | 5:44.00 | 289833 | 315632


Range status and errors

Selected range

Filename G:\Ripped general\[2209] Chopin – Piano works – Arrau [Vol.1]\cd1\Chopin – Piano works – Arrau [Vol.1] (disc 1).wav

Peak level 91.5 %
Extraction speed 2.3 X
Range quality 99.9 %
Test CRC C9F2E1FC
Copy CRC C9F2E1FC
Copy OK

No errors occurred


AccurateRip summary

Track 1 accurately ripped (confidence 4) [9DEB8CAB] (AR v2)
Track 2 accurately ripped (confidence 4) [40999B17] (AR v2)
Track 3 accurately ripped (confidence 4) [977843F7] (AR v2)
Track 4 accurately ripped (confidence 4) [7231D273] (AR v2)
Track 5 accurately ripped (confidence 4) [B9E3D667] (AR v2)
Track 6 accurately ripped (confidence 4) [6DC250AD] (AR v2)
Track 7 accurately ripped (confidence 4) [DAFB899B] (AR v2)
Track 8 accurately ripped (confidence 4) [467002AD] (AR v2)
Track 9 accurately ripped (confidence 4) [233A2BA1] (AR v2)
Track 10 accurately ripped (confidence 4) [826D10A0] (AR v2)
Track 11 accurately ripped (confidence 4) [9B04FDA9] (AR v2)
Track 12 accurately ripped (confidence 4) [E3AFCC2F] (AR v2)
Track 13 accurately ripped (confidence 4) [EF908DFE] (AR v2)
Track 14 accurately ripped (confidence 4) [D77A6CE2] (AR v2)
Track 15 accurately ripped (confidence 4) [46AD789F] (AR v2)
Track 16 accurately ripped (confidence 4) [E18C0672] (AR v2)
Track 17 accurately ripped (confidence 4) [4C735FC2] (AR v2)
Track 18 accurately ripped (confidence 4) [D36A70B9] (AR v2)
Track 19 accurately ripped (confidence 4) [90E5AB1B] (AR v2)
Track 20 accurately ripped (confidence 4) [0490E352] (AR v2)
Track 21 accurately ripped (confidence 4) [570A9319] (AR v2)
Track 22 accurately ripped (confidence 4) [2DB2ABD1] (AR v2)
Track 23 accurately ripped (confidence 4) [6F874F5E] (AR v2)
Track 24 accurately ripped (confidence 4) [C4D46E63] (AR v2)
Track 25 accurately ripped (confidence 4) [529D8F69] (AR v2)
Track 26 accurately ripped (confidence 4) [0F25F7D6] (AR v2)
Track 27 accurately ripped (confidence 4) [CE9F3215] (AR v2)
Track 28 accurately ripped (confidence 4) [FD5E36DC] (AR v2)
Track 29 accurately ripped (confidence 4) [0928A9DA] (AR v2)
Track 30 accurately ripped (confidence 4) [3E9AE0DA] (AR v2)

All tracks accurately ripped

End of status report

Exact Audio Copy V1.0 beta 3 from 29. August 2011

EAC extraction logfile from 22. October 2012, 21:26

Claudio Arrau / Chopin – Piano works – Arrau [Vol.1] (disc 2)

Used drive : TSSTcorpCDDVDW SH-222BB Adapter: 2 ID: 1

Read mode : Secure
Utilize accurate stream : Yes
Defeat audio cache : Yes
Make use of C2 pointers : No

Read offset correction : 6
Overread into Lead-In and Lead-Out : No
Fill up missing offset samples with silence : Yes
Delete leading and trailing silent blocks : No
Null samples used in CRC calculations : Yes
Used interface : Native Win32 interface for Win NT & 2000

Used output format : User Defined Encoder
Selected bitrate : 1024 kBit/s
Quality : High
Add ID3 tag : No
Command line compressor : C:\Program Files\Exact Audio Copy\Flac\flac.exe
Additional command line options : -8 -V -T "TITLE=%title%" -T "ARTIST=%artist%" -T "ALBUMARTIST=%albumartist%" -T "ALBUM=%albumtitle%" -T "DATE=%year%" -T "TRACKNUMBER=%tracknr%" -T "TRACKTOTAL=%numtracks%" -T "GENRE=%genre%" -T "COMMENT=%comment%" -T "PERFORMER=%albuminterpret%" -T "COMPOSER=%composer%" %source% -o %dest%


TOC of the extracted CD

Track | Start | Length | Start sector | End sector
––––––––––––––––––––––––––––-
1 | 0:00.33 | 6:11.00 | 33 | 27857
2 | 6:11.33 | 6:14.00 | 27858 | 55907
3 | 12:25.33 | 6:26.00 | 55908 | 84857
4 | 18:51.33 | 2:49.00 | 84858 | 97532
5 | 21:40.33 | 4:37.00 | 97533 | 118307
6 | 26:17.33 | 2:27.00 | 118308 | 129332
7 | 28:44.33 | 4:20.00 | 129333 | 148832
8 | 33:04.33 | 4:03.00 | 148833 | 167057
9 | 37:07.33 | 4:43.00 | 167058 | 188282
10 | 41:50.33 | 5:04.00 | 188283 | 211082
11 | 46:54.33 | 2:24.00 | 211083 | 221882
12 | 49:18.33 | 3:36.00 | 221883 | 238082
13 | 52:54.33 | 3:54.00 | 238083 | 255632
14 | 56:48.33 | 3:45.00 | 255633 | 272507
15 | 60:33.33 | 1:35.00 | 272508 | 279632
16 | 62:08.33 | 2:37.00 | 279633 | 291407
17 | 64:45.33 | 2:31.00 | 291408 | 302732
18 | 67:16.33 | 1:52.00 | 302733 | 311132
19 | 69:08.33 | 2:59.00 | 311133 | 324557


Range status and errors

Selected range

Filename G:\Ripped general\[2209] Chopin – Piano works – Arrau [Vol.1]\cd2\Chopin – Piano works – Arrau [Vol.1] (disc 2).wav

Peak level 92.3 %
Extraction speed 2.3 X
Range quality 100.0 %
Test CRC AEA68770
Copy CRC AEA68770
Copy OK

No errors occurred


AccurateRip summary

Track 1 accurately ripped (confidence 5) [86F12A99] (AR v2)
Track 2 accurately ripped (confidence 5) [64CD72B7] (AR v2)
Track 3 accurately ripped (confidence 5) [BB32BF29] (AR v2)
Track 4 accurately ripped (confidence 5) [AE072D06] (AR v2)
Track 5 accurately ripped (confidence 5) [98B6D9EF] (AR v2)
Track 6 accurately ripped (confidence 5) [A86A06BA] (AR v2)
Track 7 accurately ripped (confidence 5) [1EBF1EAF] (AR v2)
Track 8 accurately ripped (confidence 5) [03344042] (AR v2)
Track 9 accurately ripped (confidence 5) [ED79065F] (AR v2)
Track 10 accurately ripped (confidence 5) [961EBF6C] (AR v2)
Track 11 accurately ripped (confidence 5) [E03E9508] (AR v2)
Track 12 accurately ripped (confidence 5) [44860245] (AR v2)
Track 13 accurately ripped (confidence 5) [B711FCA7] (AR v2)
Track 14 accurately ripped (confidence 5) [3F1F4F36] (AR v2)
Track 15 accurately ripped (confidence 5) [61A632BD] (AR v2)
Track 16 accurately ripped (confidence 5) [264B5412] (AR v2)
Track 17 accurately ripped (confidence 5) [052F02CF] (AR v2)
Track 18 accurately ripped (confidence 5) [F040A0BF] (AR v2)
Track 19 accurately ripped (confidence 5) [B10213D6] (AR v2)

All tracks accurately ripped

End of status report

Exact Audio Copy V1.0 beta 3 from 29. August 2011

EAC extraction logfile from 22. October 2012, 22:46

Claudio Arrau / Chopin – Piano works – Arrau [Vol.1] (disc 3)

Used drive : TSSTcorpCDDVDW SH-222BB Adapter: 2 ID: 1

Read mode : Secure
Utilize accurate stream : Yes
Defeat audio cache : Yes
Make use of C2 pointers : No

Read offset correction : 6
Overread into Lead-In and Lead-Out : No
Fill up missing offset samples with silence : Yes
Delete leading and trailing silent blocks : No
Null samples used in CRC calculations : Yes
Used interface : Native Win32 interface for Win NT & 2000

Used output format : User Defined Encoder
Selected bitrate : 1024 kBit/s
Quality : High
Add ID3 tag : No
Command line compressor : C:\Program Files\Exact Audio Copy\Flac\flac.exe
Additional command line options : -8 -V -T "TITLE=%title%" -T "ARTIST=%artist%" -T "ALBUMARTIST=%albumartist%" -T "ALBUM=%albumtitle%" -T "DATE=%year%" -T "TRACKNUMBER=%tracknr%" -T "TRACKTOTAL=%numtracks%" -T "GENRE=%genre%" -T "COMMENT=%comment%" -T "PERFORMER=%albuminterpret%" -T "COMPOSER=%composer%" %source% -o %dest%


TOC of the extracted CD

Track | Start | Length | Start sector | End sector
––––––––––––––––––––––––––––-
1 | 0:00.33 | 9:23.00 | 33 | 42257
2 | 9:23.33 | 8:10.00 | 42258 | 79007
3 | 17:33.33 | 7:51.00 | 79008 | 114332
4 | 25:24.33 | 12:14.00 | 114333 | 169382
5 | 37:38.33 | 9:45.00 | 169383 | 213257
6 | 47:23.33 | 12:22.00 | 213258 | 268907


Range status and errors

Selected range

Filename G:\Ripped general\[2209] Chopin – Piano works – Arrau [Vol.1]\cd3\Chopin – Piano works – Arrau [Vol.1] (disc 3).wav

Peak level 97.6 %
Extraction speed 2.3 X
Range quality 100.0 %
Test CRC 1874E082
Copy CRC 1874E082
Copy OK

No errors occurred


AccurateRip summary

Track 1 accurately ripped (confidence 4) [AB3D47A6] (AR v2)
Track 2 accurately ripped (confidence 4) [BC7578C7] (AR v2)
Track 3 accurately ripped (confidence 4) [4A0B4D1F] (AR v2)
Track 4 accurately ripped (confidence 4) [D69715A5] (AR v2)
Track 5 accurately ripped (confidence 4) [92603E49] (AR v2)
Track 6 accurately ripped (confidence 4) [40EBED8C] (AR v2)

All tracks accurately ripped

End of status report

Exact Audio Copy V1.0 beta 3 from 29. August 2011

EAC extraction logfile from 23. October 2012, 10:28

Claudio Arrau / Chopin – Piano works – Arrau [Vol.2] (disc 4)

Used drive : TSSTcorpCDDVDW SH-222BB Adapter: 2 ID: 1

Read mode : Secure
Utilize accurate stream : Yes
Defeat audio cache : Yes
Make use of C2 pointers : No

Read offset correction : 6
Overread into Lead-In and Lead-Out : No
Fill up missing offset samples with silence : Yes
Delete leading and trailing silent blocks : No
Null samples used in CRC calculations : Yes
Used interface : Native Win32 interface for Win NT & 2000

Used output format : User Defined Encoder
Selected bitrate : 1024 kBit/s
Quality : High
Add ID3 tag : No
Command line compressor : C:\Program Files\Exact Audio Copy\Flac\flac.exe
Additional command line options : -8 -V -T "TITLE=%title%" -T "ARTIST=%artist%" -T "ALBUMARTIST=%albumartist%" -T "ALBUM=%albumtitle%" -T "DATE=%year%" -T "TRACKNUMBER=%tracknr%" -T "TRACKTOTAL=%numtracks%" -T "GENRE=%genre%" -T "COMMENT=%comment%" -T "PERFORMER=%albuminterpret%" -T "COMPOSER=%composer%" %source% -o %dest%


TOC of the extracted CD

Track | Start | Length | Start sector | End sector
––––––––––––––––––––––––––––-
1 | 0:00.33 | 11:24.00 | 33 | 51332
2 | 11:24.33 | 10:28.00 | 51333 | 98432
3 | 21:52.33 | 8:05.00 | 98433 | 134807
4 | 29:57.33 | 12:11.00 | 134808 | 189632
5 | 42:08.33 | 12:54.00 | 189633 | 247682


Range status and errors

Selected range

Filename G:\Ripped general\[2210] Chopin – Piano works – Arrau [Vol.2]\cd4\Chopin – Piano works – Arrau [Vol.2] (disc 4).wav

Peak level 90.4 %
Extraction speed 2.3 X
Range quality 100.0 %
Test CRC E16787DC
Copy CRC E16787DC
Copy OK

No errors occurred


AccurateRip summary

Track 1 accurately ripped (confidence 5) [F777D118] (AR v2)
Track 2 accurately ripped (confidence 5) [4FCD529B] (AR v2)
Track 3 accurately ripped (confidence 5) [B7A5FF23] (AR v2)
Track 4 accurately ripped (confidence 5) [F38DBE13] (AR v2)
Track 5 accurately ripped (confidence 5) [59F59F59] (AR v2)

All tracks accurately ripped

End of status report

Exact Audio Copy V1.0 beta 3 from 29. August 2011

EAC extraction logfile from 23. October 2012, 11:38

Claudio Arrau / Chopin – Piano works – Arrau [Vol.2] (disc 5)

Used drive : TSSTcorpCDDVDW SH-222BB Adapter: 2 ID: 1

Read mode : Secure
Utilize accurate stream : Yes
Defeat audio cache : Yes
Make use of C2 pointers : No

Read offset correction : 6
Overread into Lead-In and Lead-Out : No
Fill up missing offset samples with silence : Yes
Delete leading and trailing silent blocks : No
Null samples used in CRC calculations : Yes
Used interface : Native Win32 interface for Win NT & 2000

Used output format : User Defined Encoder
Selected bitrate : 1024 kBit/s
Quality : High
Add ID3 tag : No
Command line compressor : C:\Program Files\Exact Audio Copy\Flac\flac.exe
Additional command line options : -8 -V -T "TITLE=%title%" -T "ARTIST=%artist%" -T "ALBUMARTIST=%albumartist%" -T "ALBUM=%albumtitle%" -T "DATE=%year%" -T "TRACKNUMBER=%tracknr%" -T "TRACKTOTAL=%numtracks%" -T "GENRE=%genre%" -T "COMMENT=%comment%" -T "PERFORMER=%albuminterpret%" -T "COMPOSER=%composer%" %source% -o %dest%


TOC of the extracted CD

Track | Start | Length | Start sector | End sector
––––––––––––––––––––––––––––-
1 | 0:00.33 | 5:49.00 | 33 | 26207
2 | 5:49.33 | 4:49.00 | 26208 | 47882
3 | 10:38.33 | 7:18.00 | 47883 | 80732
4 | 17:56.33 | 5:07.00 | 80733 | 103757
5 | 23:03.33 | 3:49.00 | 103758 | 120932
6 | 26:52.33 | 4:44.00 | 120933 | 142232
7 | 31:36.33 | 5:28.00 | 142233 | 166832
8 | 37:04.33 | 6:21.00 | 166833 | 195407
9 | 43:25.33 | 5:43.00 | 195408 | 221132
10 | 49:08.33 | 5:21.00 | 221133 | 245207
11 | 54:29.33 | 7:16.00 | 245208 | 277907


Range status and errors

Selected range

Filename G:\Ripped general\[2210] Chopin – Piano works – Arrau [Vol.2]\cd5\Chopin – Piano works – Arrau [Vol.2] (disc 5).wav

Peak level 99.8 %
Extraction speed 2.3 X
Range quality 99.9 %
Test CRC 08BAA12F
Copy CRC 08BAA12F
Copy OK

No errors occurred


AccurateRip summary

Track 1 accurately ripped (confidence 4) [20D6E68D] (AR v2)
Track 2 accurately ripped (confidence 4) [E43AD2B1] (AR v2)
Track 3 accurately ripped (confidence 4) [FE64707A] (AR v2)
Track 4 accurately ripped (confidence 4) [14EC0D10] (AR v2)
Track 5 accurately ripped (confidence 4) [33287252] (AR v2)
Track 6 accurately ripped (confidence 4) [6ED6ABD5] (AR v2)
Track 7 accurately ripped (confidence 4) [294DB0F1] (AR v2)
Track 8 accurately ripped (confidence 4) [F1BBFC99] (AR v2)
Track 9 accurately ripped (confidence 4) [18A46FBD] (AR v2)
Track 10 accurately ripped (confidence 4) [784DBF59] (AR v2)
Track 11 accurately ripped (confidence 4) [10860A35] (AR v2)

All tracks accurately ripped

End of status report

Exact Audio Copy V1.0 beta 3 from 29. August 2011

EAC extraction logfile from 23. October 2012, 12:30

Claudio Arrau / Chopin – Piano works – Arrau [Vol.2] (disc 6)

Used drive : TSSTcorpCDDVDW SH-222BB Adapter: 2 ID: 1

Read mode : Secure
Utilize accurate stream : Yes
Defeat audio cache : Yes
Make use of C2 pointers : No

Read offset correction : 6
Overread into Lead-In and Lead-Out : No
Fill up missing offset samples with silence : Yes
Delete leading and trailing silent blocks : No
Null samples used in CRC calculations : Yes
Used interface : Native Win32 interface for Win NT & 2000

Used output format : User Defined Encoder
Selected bitrate : 1024 kBit/s
Quality : High
Add ID3 tag : No
Command line compressor : C:\Program Files\Exact Audio Copy\Flac\flac.exe
Additional command line options : -8 -V -T "TITLE=%title%" -T "ARTIST=%artist%" -T "ALBUMARTIST=%albumartist%" -T "ALBUM=%albumtitle%" -T "DATE=%year%" -T "TRACKNUMBER=%tracknr%" -T "TRACKTOTAL=%numtracks%" -T "GENRE=%genre%" -T "COMMENT=%comment%" -T "PERFORMER=%albuminterpret%" -T "COMPOSER=%composer%" %source% -o %dest%


TOC of the extracted CD

Track | Start | Length | Start sector | End sector
––––––––––––––––––––––––––––-
1 | 0:00.33 | 7:07.00 | 33 | 32057
2 | 7:07.33 | 6:22.00 | 32058 | 60707
3 | 13:29.33 | 7:52.00 | 60708 | 96107
4 | 21:21.33 | 5:45.00 | 96108 | 121982
5 | 27:06.33 | 5:33.00 | 121983 | 146957
6 | 32:39.33 | 7:45.00 | 146958 | 181832
7 | 40:24.33 | 7:13.00 | 181833 | 214307
8 | 47:37.33 | 4:17.00 | 214308 | 233582
9 | 51:54.33 | 4:30.00 | 233583 | 253832
10 | 56:24.33 | 3:42.00 | 253833 | 270482


Range status and errors

Selected range

Filename G:\Ripped general\[2210] Chopin – Piano works – Arrau [Vol.2]\cd6\Chopin – Piano works – Arrau [Vol.2] (disc 6).wav

Peak level 97.8 %
Extraction speed 2.3 X
Range quality 100.0 %
Test CRC 878D374D
Copy CRC 878D374D
Copy OK

No errors occurred


AccurateRip summary

Track 1 accurately ripped (confidence 3) [4CBF19C7] (AR v2)
Track 2 accurately ripped (confidence 3) [25307D94] (AR v2)
Track 3 accurately ripped (confidence 3) [CCF108C4] (AR v2)
Track 4 accurately ripped (confidence 3) [8EB5F91A] (AR v2)
Track 5 accurately ripped (confidence 3) [3A5EC5A2] (AR v2)
Track 6 accurately ripped (confidence 3) [9D67A87D] (AR v2)
Track 7 accurately ripped (confidence 3) [204659FB] (AR v2)
Track 8 accurately ripped (confidence 3) [BBC94E95] (AR v2)
Track 9 accurately ripped (confidence 3) [0618C6F9] (AR v2)
Track 10 accurately ripped (confidence 3) [C7DD66C2] (AR v2)

All tracks accurately ripped

End of status report

Thanks to the Original ripper (unknown)!

Welcome to my blog!

Download: