Tags
Language
Tags

Claudio Arrau, Bernard Haitink, Concertgebouw Orchestra - Brahms: Piano Concerto No. 1 (1988)

Posted By: ArlegZ
Claudio Arrau, Bernard Haitink, Concertgebouw Orchestra - Brahms: Piano Concerto No. 1 (1988)

Claudio Arrau, Bernard Haitink, Concertgebouw Orchestra - Brahms: Piano Concerto No. 1 (1988)
EAC | FLAC | Image (Cue & Log) ~ 275 Mb | Total time: 52:49 | Scans included
Classical | Label: Philips | # 420 702-2 | Recorded: 1969

Claudio Arrau, one of the greatest piano masters of the s. XX, leaves us astonished with this intense and majestic version, showing his immense knowledge of German Romanticism of which he was an excellent exponent. Excellent temps and wonderful nuances. Here Bernard Haitink shows us why he became a benchmark in conducting by one of the best ensembles on the planet: the Amsterdam Concertgebouw Orchestra.

Performer:
Claudio Arrau, piano
Concertgebouw Orchestra, Amsterdam
Bernard Haitink, conductor

Track List:
Piano Concerto No. 1 in D minor, Op. 15
1. I. Maestoso - Poco più moderato
2. II. Adagio
3. III. Rondo (Allegro non troppo - Piú animato - Tempo I)


Exact Audio Copy V1.5 from 20. February 2020

EAC extraction logfile from 26. December 2020, 12:36

Brahms; Claudio Arrau, Concertgebouw Orchestra, Amsterdam, Bernard Haitink / Piano Concerto no. 1

Used drive : hp DVDRW GUE1N Adapter: 1 ID: 0

Read mode : Secure
Utilize accurate stream : Yes
Defeat audio cache : No
Make use of C2 pointers : No

Read offset correction : 6
Overread into Lead-In and Lead-Out : No
Fill up missing offset samples with silence : Yes
Delete leading and trailing silent blocks : No
Null samples used in CRC calculations : Yes
Used interface : Native Win32 interface for Win NT & 2000

Used output format : Internal WAV Routines
Sample format : 44.100 Hz; 16 Bit; Stereo


TOC of the extracted CD

Track | Start | Length | Start sector | End sector
––––––––––––––––––––––––––––-
1 | 0:00.32 | 24:11.08 | 32 | 108864
2 | 24:11.40 | 15:48.42 | 108865 | 180006
3 | 40:00.07 | 12:49.13 | 180007 | 237694


Range status and errors

Selected range

Filename C:\Users\Utente\Music\DOWNLOADS_AUDIO\Brahms; Claudio Arrau, Concertgebouw Orchestra, Amsterdam, Bernard Haitink - Piano Concerto no. 1.wav

Peak level 99.9 %
Extraction speed 2.9 X
Range quality 99.9 %
Test CRC 55C4161E
Copy CRC 55C4161E
Copy OK

No errors occurred


AccurateRip summary

Track 1 accurately ripped (confidence 22) [E2CAFCC6] (AR v2)
Track 2 cannot be verified as accurate (confidence 22) [1E6345F8], AccurateRip returned [0C1E2ECF] (AR v2)
Track 3 accurately ripped (confidence 22) [E5477765] (AR v2)

2 track(s) accurately ripped
1 track(s) could not be verified as accurate

Some tracks could not be verified as accurate

End of status report

–– CUETools DB Plugin V2.1.6

[CTDB TOCID: rFt1J9lmoMEwVhakyqQGngwuwJ4-] found
Submit result: rFt1J9lmoMEwVhakyqQGngwuwJ4- has been submitted
Track | CTDB Status
1 | (48/48) Accurately ripped
2 | (46/48) Differs in 42 samples @12:59:29
3 | (46/48) Accurately ripped
If you are sure that your rip contains errors, you can use CUETools to repair it.

Claudio Arrau, Bernard Haitink, Concertgebouw Orchestra - Brahms: Piano Concerto No. 1 (1988)

Thanks to the original releaser