Tags
Language
Tags

Claudio Arrau, Bernard Haitink, Concertgebouw Orchestra - Brahms: Piano Concerto No. 2 (1988)

Posted By: ArlegZ
Claudio Arrau, Bernard Haitink, Concertgebouw Orchestra - Brahms: Piano Concerto No. 2 (1988)

Claudio Arrau, Bernard Haitink, Concertgebouw Orchestra - Brahms: Piano Concerto No. 2 (1988)
EAC | FLAC | Image (Cue & Log) ~ 236 Mb | Total time: 50:47 | Scans included
Classical | Label: Philips | # 420 885-2 | Recorded: 1969

Claudio Arrau, one of the greatest piano masters of the s. XX, leaves us astonished with this intense and majestic version, showing his immense knowledge of German Romanticism of which he was an excellent exponent. Excellent temps and wonderful nuances. Here Bernard Haitink shows us why he became a benchmark in conducting by one of the best ensembles on the planet: the Amsterdam Concertgebouw Orchestra.

Performer:
Claudio Arrau, piano
Concertgebouw Orchestra, Amsterdam
Bernard Haitink, conductor

Track List:
Piano Concerto No. 2 in B Flat, Op.83
01. I. Allegro non troppo
02. II. Allegro appassionato
03. III. Andante - Più adagio
04. IV. Allegro grazioso - Un poco più Prèsto


Exact Audio Copy V1.5 from 20. February 2020

EAC extraction logfile from 26. December 2020, 14:32

Claudio Arrau - Klavier; Koninklijk Concertgebouworkest, Amsterdam - Dirigent: Bernhard Haitink / Johannes Brahms - Klavierkonzert Nr. 2 B-Dur op. 83

Used drive : hp DVDRW GUE1N Adapter: 1 ID: 0

Read mode : Secure
Utilize accurate stream : Yes
Defeat audio cache : No
Make use of C2 pointers : No

Read offset correction : 6
Overread into Lead-In and Lead-Out : No
Fill up missing offset samples with silence : Yes
Delete leading and trailing silent blocks : No
Null samples used in CRC calculations : Yes
Used interface : Native Win32 interface for Win NT & 2000

Used output format : Internal WAV Routines
Sample format : 44.100 Hz; 16 Bit; Stereo


TOC of the extracted CD

Track | Start | Length | Start sector | End sector
––––––––––––––––––––––––––––-
1 | 0:00.33 | 19:18.00 | 33 | 86882
2 | 19:18.33 | 9:20.00 | 86883 | 128882
3 | 28:38.33 | 12:07.00 | 128883 | 183407
4 | 40:45.33 | 10:02.00 | 183408 | 228557


Range status and errors

Selected range

Filename C:\Users\Utente\Music\DOWNLOADS_AUDIO\Claudio Arrau - Klavier; Koninklijk Concertgebouworkest, Amsterdam - Dirigent- Bernhard Haitink - Johannes Brahms - Klavierkonzert Nr. 2 B-Dur op. 83.wav

Peak level 99.0 %
Extraction speed 2.9 X
Range quality 99.9 %
Test CRC 818AB9F4
Copy CRC 818AB9F4
Copy OK

No errors occurred


AccurateRip summary

Track 1 accurately ripped (confidence 15) [446017AB] (AR v2)
Track 2 accurately ripped (confidence 15) [CF93D469] (AR v2)
Track 3 accurately ripped (confidence 15) [0F5E7373] (AR v2)
Track 4 accurately ripped (confidence 15) [1E83BE8D] (AR v2)

All tracks accurately ripped

End of status report

–– CUETools DB Plugin V2.1.6

[CTDB TOCID: ZFYq21n0_1T.Myk9d7C59sBygaU-] found
Submit result: ZFYq21n0_1T.Myk9d7C59sBygaU- has been confirmed
Track | CTDB Status
1 | (29/29) Accurately ripped
2 | (29/29) Accurately ripped
3 | (29/29) Accurately ripped
4 | (29/29) Accurately ripped

Claudio Arrau, Bernard Haitink, Concertgebouw Orchestra - Brahms: Piano Concerto No. 2 (1988)

Thanks to the original releaser